<?xml version="1.0" standalone="no"?>
<!DOCTYPE svg PUBLIC "-//W3C//DTD SVG 1.1//EN" "http://www.w3.org/Graphics/SVG/1.1/DTD/svg11.dtd" >
<svg xmlns="http://www.w3.org/2000/svg">
<metadata>Generated by IcoMoon</metadata>
<defs>
<font id="premium-line-icons" horiz-adv-x="1024">
<font-face units-per-em="1024" ascent="960" descent="-64" />
<missing-glyph horiz-adv-x="1024" />
<glyph unicode="&#x20;" horiz-adv-x="512" d="" />
<glyph unicode="&#xe900;" glyph-name="aa" d="M77.184 20.437c-2.091 0-4.181 0.299-6.229 0.939-11.264 3.413-17.664 15.275-14.208 26.581l245.76 812.416c3.456 11.264 15.275 17.664 26.624 14.208 11.307-3.413 17.664-15.317 14.208-26.624l-245.803-812.373c-2.773-9.216-11.221-15.147-20.352-15.147zM580.821 20.437c-9.173 0-17.621 5.973-20.437 15.189l-245.803 812.373c-3.413 11.307 2.944 23.125 14.208 26.624 11.349 3.456 23.168-2.987 26.624-14.208l245.803-812.416c3.413-11.264-2.901-23.168-14.208-26.581-2.048-0.683-4.139-0.981-6.187-0.981zM789.163 40.107c-30.891 0-61.056 5.035-86.741 16.427-44.032 19.584-68.523 56.107-69.163 102.955-0.427 35.925 12.459 66.176 38.315 89.899 79.445 73.003 258.688 56.363 266.368 55.637 11.691-1.109 20.309-11.605 19.157-23.296-1.152-11.648-11.349-20.437-23.339-19.2-1.621 0.213-167.936 15.573-233.344-44.544-16.811-15.403-24.789-34.432-24.491-57.899 0.427-30.421 14.763-51.584 43.861-64.555 62.763-27.861 167.851-6.784 209.749 30.123 8.875 7.765 22.315 6.912 30.123-1.963s6.912-22.272-1.92-30.123c-35.712-31.317-103.637-53.461-168.576-53.461zM498.944 232.192h-341.333c-11.776 0-21.333 9.557-21.333 21.333s9.557 21.333 21.333 21.333h341.333c11.733 0 21.333-9.557 21.333-21.333s-9.557-21.333-21.333-21.333zM946.944 40.192c-11.776 0-21.333 9.557-21.333 21.333v318.72c-14.592 22.229-33.792 35.755-58.539 41.259-78.848 17.579-182.827-52.096-183.936-52.736-9.728-6.571-22.997-4.096-29.568 5.717-6.613 9.771-4.139 22.997 5.675 29.525 4.864 3.328 120.149 80.597 216.96 59.179 38.059-8.448 68.011-30.592 89.003-65.835 1.963-3.285 3.029-7.083 3.029-10.923v-324.821c0.043-11.861-9.515-21.419-21.291-21.419z" />
<glyph unicode="&#xe901;" glyph-name="add-space-after-paragraph" d="M43.563 149.333c-4.139 0-8.235 1.173-11.947 3.669-9.771 6.592-12.245 19.84-5.675 29.589l93.227 137.365-93.227 137.387c-6.571 9.771-4.096 22.997 5.675 29.568s23.040 4.096 29.611-5.675l101.333-149.333c4.907-7.296 4.907-16.917 0-24.043l-101.333-149.333c-4.181-5.909-10.837-9.195-17.664-9.195zM980.437 725.333h-725.333c-11.733 0-21.333 9.6-21.333 21.333s9.6 21.333 21.333 21.333h725.333c11.733 0 21.333-9.6 21.333-21.333s-9.6-21.333-21.333-21.333zM553.771 554.667h-298.667c-11.733 0-21.333 9.6-21.333 21.333s9.6 21.333 21.333 21.333h298.667c11.733 0 21.333-9.6 21.333-21.333s-9.6-21.333-21.333-21.333zM809.771 426.667h-554.667c-11.733 0-21.333 9.6-21.333 21.333s9.6 21.333 21.333 21.333h554.667c11.733 0 21.333-9.6 21.333-21.333s-9.6-21.333-21.333-21.333zM297.771 298.667h-42.667c-11.733 0-21.333 9.6-21.333 21.333s9.6 21.333 21.333 21.333h42.667c11.776 0 21.333-9.6 21.333-21.333s-9.6-21.333-21.333-21.333zM468.437 298.667h-42.667c-11.733 0-21.333 9.6-21.333 21.333s9.6 21.333 21.333 21.333h42.667c11.776 0 21.333-9.6 21.333-21.333s-9.6-21.333-21.333-21.333zM639.104 298.667h-42.667c-11.605 0-21.333 9.6-21.333 21.333s9.728 21.333 21.333 21.333h42.667c11.733 0 21.333-9.6 21.333-21.333s-9.6-21.333-21.333-21.333zM809.771 298.667h-42.667c-11.605 0-21.333 9.6-21.333 21.333s9.728 21.333 21.333 21.333h42.667c11.733 0 21.333-9.6 21.333-21.333s-9.6-21.333-21.333-21.333zM980.437 298.667h-42.667c-11.605 0-21.333 9.6-21.333 21.333s9.728 21.333 21.333 21.333h42.667c11.733 0 21.333-9.6 21.333-21.333s-9.6-21.333-21.333-21.333zM297.771 213.333h-42.667c-11.733 0-21.333 9.6-21.333 21.333s9.6 21.333 21.333 21.333h42.667c11.776 0 21.333-9.6 21.333-21.333s-9.6-21.333-21.333-21.333zM468.437 213.333h-42.667c-11.733 0-21.333 9.6-21.333 21.333s9.6 21.333 21.333 21.333h42.667c11.776 0 21.333-9.6 21.333-21.333s-9.6-21.333-21.333-21.333zM639.104 213.333h-42.667c-11.605 0-21.333 9.6-21.333 21.333s9.728 21.333 21.333 21.333h42.667c11.733 0 21.333-9.6 21.333-21.333s-9.6-21.333-21.333-21.333zM809.771 213.333h-42.667c-11.605 0-21.333 9.6-21.333 21.333s9.728 21.333 21.333 21.333h42.667c11.733 0 21.333-9.6 21.333-21.333s-9.6-21.333-21.333-21.333zM980.437 213.333h-42.667c-11.605 0-21.333 9.6-21.333 21.333s9.728 21.333 21.333 21.333h42.667c11.733 0 21.333-9.6 21.333-21.333s-9.6-21.333-21.333-21.333z" />
<glyph unicode="&#xe902;" glyph-name="add-space-before-paragraph" d="M724.437 170.667h-469.333c-11.733 0-21.333 9.643-21.333 21.333s9.6 21.333 21.333 21.333h469.333c11.776 0 21.333-9.643 21.333-21.333s-9.557-21.333-21.333-21.333zM809.771 426.667h-554.667c-11.733 0-21.333 9.643-21.333 21.333 0 11.733 9.6 21.333 21.333 21.333h554.667c11.776 0 21.333-9.6 21.333-21.333 0-11.691-9.557-21.333-21.333-21.333zM511.104 298.667h-256c-11.733 0-21.333 9.643-21.333 21.333s9.6 21.333 21.333 21.333h256c11.776 0 21.333-9.643 21.333-21.333s-9.557-21.333-21.333-21.333zM43.563 405.419c-4.139 0-8.235 1.131-11.947 3.669-9.771 6.592-12.245 19.84-5.675 29.568l93.227 137.387-93.269 137.387c-6.571 9.771-4.053 22.997 5.675 29.568 9.813 6.571 23.040 4.096 29.653-5.675l101.333-149.333c4.907-7.253 4.907-16.768 0-24.021l-101.333-149.333c-4.139-5.931-10.837-9.216-17.664-9.216zM297.771 640.085h-42.667c-11.733 0-21.333 9.6-21.333 21.333s9.6 21.333 21.333 21.333h42.667c11.776 0 21.333-9.6 21.333-21.333s-9.557-21.333-21.333-21.333zM468.437 640.085h-42.667c-11.733 0-21.333 9.6-21.333 21.333s9.6 21.333 21.333 21.333h42.667c11.776 0 21.333-9.6 21.333-21.333s-9.557-21.333-21.333-21.333zM639.104 640.085h-42.667c-11.605 0-21.333 9.6-21.333 21.333s9.728 21.333 21.333 21.333h42.667c11.776 0 21.333-9.6 21.333-21.333s-9.557-21.333-21.333-21.333zM809.771 640.085h-42.667c-11.605 0-21.333 9.6-21.333 21.333s9.728 21.333 21.333 21.333h42.667c11.776 0 21.333-9.6 21.333-21.333s-9.557-21.333-21.333-21.333zM980.437 640.085h-42.667c-11.605 0-21.333 9.6-21.333 21.333s9.728 21.333 21.333 21.333h42.667c11.776 0 21.333-9.6 21.333-21.333s-9.557-21.333-21.333-21.333zM297.771 554.752h-42.667c-11.733 0-21.333 9.6-21.333 21.333s9.6 21.333 21.333 21.333h42.667c11.776 0 21.333-9.6 21.333-21.333s-9.557-21.333-21.333-21.333zM468.437 554.752h-42.667c-11.733 0-21.333 9.6-21.333 21.333s9.6 21.333 21.333 21.333h42.667c11.776 0 21.333-9.6 21.333-21.333s-9.557-21.333-21.333-21.333zM639.104 554.752h-42.667c-11.605 0-21.333 9.6-21.333 21.333s9.728 21.333 21.333 21.333h42.667c11.776 0 21.333-9.6 21.333-21.333s-9.557-21.333-21.333-21.333zM809.771 554.752h-42.667c-11.605 0-21.333 9.6-21.333 21.333s9.728 21.333 21.333 21.333h42.667c11.776 0 21.333-9.6 21.333-21.333s-9.557-21.333-21.333-21.333zM980.437 554.752h-42.667c-11.605 0-21.333 9.6-21.333 21.333s9.728 21.333 21.333 21.333h42.667c11.776 0 21.333-9.6 21.333-21.333s-9.557-21.333-21.333-21.333z" />
<glyph unicode="&#xe903;" glyph-name="address-book" d="M896-64h-832c-11.776 0-21.333 9.6-21.333 21.333v981.333c0 11.776 9.557 21.333 21.333 21.333h789.333c70.571 0 128-57.429 128-128v-810.667c0-47.104-38.229-85.333-85.333-85.333zM85.333-21.333h810.667c23.509 0 42.667 19.115 42.667 42.667v810.667c0 47.019-38.229 85.333-85.333 85.333h-768v-938.667zM149.333-42.667c-11.776 0-21.333 9.6-21.333 21.333v938.667c0 11.776 9.557 21.333 21.333 21.333s21.333-9.557 21.333-21.333v-938.667c0-11.733-9.557-21.333-21.333-21.333zM554.667 490.667c-70.571 0-128 57.429-128 128s57.429 128 128 128c70.571 0 128-57.429 128-128s-57.429-128-128-128zM554.667 704c-47.061 0-85.333-38.315-85.333-85.333 0-47.061 38.272-85.333 85.333-85.333 47.104 0 85.333 38.272 85.333 85.333 0 47.019-38.229 85.333-85.333 85.333zM790.187 149.333c-0.256 0-0.555 0-0.853 0h-469.333c-11.776 0-21.333 9.6-21.333 21.333 0 168.448 100.48 277.333 256 277.333 153.685 0 253.483-106.155 255.957-271.147 0.64-2.005 0.896-4.096 0.896-6.187 0-11.733-9.557-21.333-21.333-21.333zM341.931 192h425.472c-8.661 156.8-113.92 213.333-212.693 213.333s-204.075-56.533-212.779-213.333z" />
<glyph unicode="&#xe904;" glyph-name="address-book-2" d="M842.667-64h-746.667c-11.776 0-21.333 9.6-21.333 21.333v981.333c0 11.776 9.557 21.333 21.333 21.333h746.667c47.104 0 85.333-38.315 85.333-85.333v-853.333c0-47.104-38.229-85.333-85.333-85.333zM117.333-21.333h725.333c23.509 0 42.667 19.115 42.667 42.667v853.333c0 23.552-19.157 42.667-42.667 42.667h-725.333v-938.667zM992 661.333h-85.333c-11.733 0-21.333 9.557-21.333 21.333v128c0 11.776 9.6 21.333 21.333 21.333h85.333c11.733 0 21.333-9.557 21.333-21.333v-128c0-11.776-9.6-21.333-21.333-21.333zM928 704h42.667v85.333h-42.667v-85.333zM992 533.333h-85.333c-11.733 0-21.333 9.557-21.333 21.333v128c0 11.776 9.6 21.333 21.333 21.333h85.333c11.733 0 21.333-9.557 21.333-21.333v-128c0-11.776-9.6-21.333-21.333-21.333zM928 576h42.667v85.333h-42.667v-85.333zM992 405.333h-85.333c-11.733 0-21.333 9.6-21.333 21.333v128c0 11.776 9.6 21.333 21.333 21.333h85.333c11.733 0 21.333-9.557 21.333-21.333v-128c0-11.733-9.6-21.333-21.333-21.333zM928 448h42.667v85.333h-42.667v-85.333zM992 277.333h-85.333c-11.733 0-21.333 9.6-21.333 21.333v128c0 11.776 9.6 21.333 21.333 21.333h85.333c11.733 0 21.333-9.557 21.333-21.333v-128c0-11.733-9.6-21.333-21.333-21.333zM928 320h42.667v85.333h-42.667v-85.333zM992 149.333h-85.333c-11.733 0-21.333 9.6-21.333 21.333v128c0 11.733 9.6 21.333 21.333 21.333h85.333c11.733 0 21.333-9.6 21.333-21.333v-128c0-11.733-9.6-21.333-21.333-21.333zM928 192h42.667v85.333h-42.667v-85.333zM992 21.333h-85.333c-11.733 0-21.333 9.6-21.333 21.333v128c0 11.733 9.6 21.333 21.333 21.333h85.333c11.733 0 21.333-9.6 21.333-21.333v-128c0-11.733-9.6-21.333-21.333-21.333zM928 64h42.667v85.333h-42.667v-85.333zM160 832h-128c-11.776 0-21.333 9.557-21.333 21.333s9.557 21.333 21.333 21.333h128c11.776 0 21.333-9.557 21.333-21.333s-9.557-21.333-21.333-21.333zM160 704h-128c-11.776 0-21.333 9.557-21.333 21.333s9.557 21.333 21.333 21.333h128c11.776 0 21.333-9.557 21.333-21.333s-9.557-21.333-21.333-21.333zM160 576h-128c-11.776 0-21.333 9.557-21.333 21.333s9.557 21.333 21.333 21.333h128c11.776 0 21.333-9.557 21.333-21.333s-9.557-21.333-21.333-21.333zM160 448h-128c-11.776 0-21.333 9.557-21.333 21.333s9.557 21.333 21.333 21.333h128c11.776 0 21.333-9.557 21.333-21.333s-9.557-21.333-21.333-21.333zM160 320h-128c-11.776 0-21.333 9.6-21.333 21.333s9.557 21.333 21.333 21.333h128c11.776 0 21.333-9.6 21.333-21.333s-9.557-21.333-21.333-21.333zM160 192h-128c-11.776 0-21.333 9.6-21.333 21.333s9.557 21.333 21.333 21.333h128c11.776 0 21.333-9.6 21.333-21.333s-9.557-21.333-21.333-21.333zM160 64h-128c-11.776 0-21.333 9.6-21.333 21.333s9.557 21.333 21.333 21.333h128c11.776 0 21.333-9.6 21.333-21.333s-9.557-21.333-21.333-21.333z" />
<glyph unicode="&#xe905;" glyph-name="airbrush" d="M228.267 130.304v0c-24.704 0-48.384 9.557-65.024 26.197-17.024 16.939-26.069 40.149-25.429 65.28 0.64 24.832 10.752 48.256 28.459 66.005 7.125 7.125 15.147 11.691 21.589 15.445 3.84 2.304 7.851 4.565 9.557 6.272l555.008 555.051c4.011 4.011 9.429 6.229 15.104 6.229v0c5.675 0 11.093-2.261 15.104-6.229l90.496-90.539c8.32-8.32 8.32-21.845 0-30.165l-105.6-105.6 45.269-45.269c4.053-4.011 6.229-9.429 6.229-15.104s-2.261-11.093-6.229-15.104l-60.373-60.288c-8.32-8.32-21.845-8.32-30.165 0l-45.269 45.227-358.912-358.955c-1.877-1.835-4.309-5.845-6.613-9.728-3.797-6.272-8.533-14.123-15.488-21.077-17.92-17.792-41.984-27.648-67.712-27.648zM767.488 819.371l-539.947-539.947c-5.632-5.632-12.331-9.6-18.261-13.013-4.992-2.859-9.728-5.589-12.885-8.832-9.941-9.856-15.616-22.997-16-36.907-0.341-13.269 4.267-25.387 12.971-34.005 17.963-18.005 53.291-17.493 72.405 1.579 3.285 3.328 6.144 8.021 9.131 13.013 3.669 6.101 7.467 12.373 13.056 17.877l373.973 373.931c8.277 8.32 21.845 8.32 30.165 0l45.269-45.227 30.208 30.165-45.355 45.269c-4.011 3.968-6.229 9.429-6.229 15.104 0 5.632 2.261 11.051 6.229 15.104l105.643 105.6-60.373 60.288zM303.189 366.677c-0.811 0-1.664 0-2.475 0.128l-45.653 5.333c-3.669 0.427-7.125 1.792-10.112 3.925l-108.501 79.104c-5.035 3.669-8.235 9.344-8.704 15.573s1.792 12.331 6.187 16.768l128.213 128.213c4.48 4.437 10.667 6.784 17.024 6.144 6.315-0.555 12.032-3.925 15.616-9.131l76.459-111.147c2.944-4.267 4.224-9.472 3.584-14.635l-7.125-58.965c-1.408-11.733-11.861-20.096-23.765-18.688-11.691 1.408-20.053 12.075-18.645 23.765l6.187 50.987-57.344 83.371-92.459-92.416 83.797-61.141 40.064-4.608c11.691-1.323 20.096-11.947 18.731-23.723-1.195-10.88-10.411-18.859-21.077-18.859zM907.349 465.067c-63.403 0-124.331 41.259-155.264 72.149-8.32 8.32-8.32 21.803-0.043 30.165 8.277 8.277 21.803 8.32 30.165 0.085 4.224-4.224 103.808-101.333 182.443-39.68 9.216 7.296 22.656 5.675 29.909-3.627 7.253-9.259 5.675-22.656-3.584-29.952-26.709-20.949-55.467-29.141-83.627-29.141zM92.459 483.029c-5.504 0-10.965 2.091-15.147 6.272-8.277 8.363-8.235 21.888 0.128 30.165l153.344 152.021c8.405 8.235 21.888 8.235 30.165-0.171 8.277-8.32 8.235-21.845-0.128-30.165l-153.344-152.021c-4.181-4.053-9.6-6.101-15.019-6.101zM85.333 25.216c-5.333 0-10.624 1.963-14.72 5.888l-39.125 37.333c-4.181 4.011-6.528 9.515-6.613 15.232s2.219 11.349 6.272 15.317l74.24 73.771c8.363 8.277 21.845 8.192 30.165-0.085 8.32-8.363 8.277-21.888-0.085-30.208l-58.667-58.283 8.96-8.619 63.104 56.619c8.747 7.851 22.229 7.125 30.123-1.621 7.893-8.789 7.125-22.272-1.621-30.123l-77.781-69.845c-4.053-3.541-9.131-5.376-14.251-5.376z" />
<glyph unicode="&#xe906;" glyph-name="align-center" d="M981.333 682.667h-938.667c-11.776 0-21.333 9.6-21.333 21.333s9.557 21.333 21.333 21.333h938.667c11.733 0 21.333-9.6 21.333-21.333s-9.6-21.333-21.333-21.333zM853.333 554.667h-725.333c-11.776 0-21.333 9.6-21.333 21.333s9.557 21.333 21.333 21.333h725.333c11.733 0 21.333-9.6 21.333-21.333s-9.6-21.333-21.333-21.333zM682.667 426.667h-341.333c-11.776 0-21.333 9.6-21.333 21.333s9.557 21.333 21.333 21.333h341.333c11.733 0 21.333-9.6 21.333-21.333s-9.6-21.333-21.333-21.333zM810.667 298.667h-640c-11.776 0-21.333 9.6-21.333 21.333s9.557 21.333 21.333 21.333h640c11.733 0 21.333-9.6 21.333-21.333s-9.6-21.333-21.333-21.333zM981.333 170.667h-938.667c-11.776 0-21.333 9.6-21.333 21.333s9.557 21.333 21.333 21.333h938.667c11.733 0 21.333-9.6 21.333-21.333s-9.6-21.333-21.333-21.333z" />
<glyph unicode="&#xe907;" glyph-name="align-justify-all" d="M981.333 682.667h-938.667c-11.776 0-21.333 9.6-21.333 21.333s9.557 21.333 21.333 21.333h938.667c11.733 0 21.333-9.6 21.333-21.333s-9.6-21.333-21.333-21.333zM981.333 554.667h-938.667c-11.776 0-21.333 9.6-21.333 21.333s9.557 21.333 21.333 21.333h938.667c11.733 0 21.333-9.6 21.333-21.333s-9.6-21.333-21.333-21.333zM981.333 426.667h-938.667c-11.776 0-21.333 9.6-21.333 21.333s9.557 21.333 21.333 21.333h938.667c11.733 0 21.333-9.6 21.333-21.333s-9.6-21.333-21.333-21.333zM981.333 298.667h-938.667c-11.776 0-21.333 9.6-21.333 21.333s9.557 21.333 21.333 21.333h938.667c11.733 0 21.333-9.6 21.333-21.333s-9.6-21.333-21.333-21.333zM981.333 170.667h-938.667c-11.776 0-21.333 9.6-21.333 21.333s9.557 21.333 21.333 21.333h938.667c11.733 0 21.333-9.6 21.333-21.333s-9.6-21.333-21.333-21.333z" />
<glyph unicode="&#xe908;" glyph-name="align-justify-center" d="M981.333 682.667h-938.667c-11.776 0-21.333 9.6-21.333 21.333s9.557 21.333 21.333 21.333h938.667c11.733 0 21.333-9.6 21.333-21.333s-9.6-21.333-21.333-21.333zM981.333 554.667h-938.667c-11.776 0-21.333 9.6-21.333 21.333s9.557 21.333 21.333 21.333h938.667c11.733 0 21.333-9.6 21.333-21.333s-9.6-21.333-21.333-21.333zM981.333 426.667h-938.667c-11.776 0-21.333 9.6-21.333 21.333s9.557 21.333 21.333 21.333h938.667c11.733 0 21.333-9.6 21.333-21.333s-9.6-21.333-21.333-21.333zM981.333 298.667h-938.667c-11.776 0-21.333 9.6-21.333 21.333s9.557 21.333 21.333 21.333h938.667c11.733 0 21.333-9.6 21.333-21.333s-9.6-21.333-21.333-21.333zM768 170.667h-512c-11.776 0-21.333 9.6-21.333 21.333s9.557 21.333 21.333 21.333h512c11.733 0 21.333-9.6 21.333-21.333s-9.6-21.333-21.333-21.333z" />
<glyph unicode="&#xe909;" glyph-name="align-justify-left" d="M981.333 682.667h-938.667c-11.776 0-21.333 9.6-21.333 21.333s9.557 21.333 21.333 21.333h938.667c11.733 0 21.333-9.6 21.333-21.333s-9.6-21.333-21.333-21.333zM981.333 554.667h-938.667c-11.776 0-21.333 9.6-21.333 21.333s9.557 21.333 21.333 21.333h938.667c11.733 0 21.333-9.6 21.333-21.333s-9.6-21.333-21.333-21.333zM981.333 426.667h-938.667c-11.776 0-21.333 9.6-21.333 21.333s9.557 21.333 21.333 21.333h938.667c11.733 0 21.333-9.6 21.333-21.333s-9.6-21.333-21.333-21.333zM981.333 298.667h-938.667c-11.776 0-21.333 9.6-21.333 21.333s9.557 21.333 21.333 21.333h938.667c11.733 0 21.333-9.6 21.333-21.333s-9.6-21.333-21.333-21.333zM981.333 170.667h-512c-11.776 0-21.333 9.6-21.333 21.333s9.557 21.333 21.333 21.333h512c11.733 0 21.333-9.6 21.333-21.333s-9.6-21.333-21.333-21.333z" />
<glyph unicode="&#xe90a;" glyph-name="align-justify-right" d="M981.333 682.667h-938.667c-11.776 0-21.333 9.6-21.333 21.333s9.557 21.333 21.333 21.333h938.667c11.733 0 21.333-9.6 21.333-21.333s-9.6-21.333-21.333-21.333zM981.333 554.667h-938.667c-11.776 0-21.333 9.6-21.333 21.333s9.557 21.333 21.333 21.333h938.667c11.733 0 21.333-9.6 21.333-21.333s-9.6-21.333-21.333-21.333zM981.333 426.667h-938.667c-11.776 0-21.333 9.6-21.333 21.333s9.557 21.333 21.333 21.333h938.667c11.733 0 21.333-9.6 21.333-21.333s-9.6-21.333-21.333-21.333zM981.333 298.667h-938.667c-11.776 0-21.333 9.6-21.333 21.333s9.557 21.333 21.333 21.333h938.667c11.733 0 21.333-9.6 21.333-21.333s-9.6-21.333-21.333-21.333zM554.667 170.667h-512c-11.776 0-21.333 9.6-21.333 21.333s9.557 21.333 21.333 21.333h512c11.733 0 21.333-9.6 21.333-21.333s-9.6-21.333-21.333-21.333z" />
<glyph unicode="&#xe90b;" glyph-name="align-left" d="M981.333 682.667h-938.667c-11.776 0-21.333 9.6-21.333 21.333s9.557 21.333 21.333 21.333h938.667c11.733 0 21.333-9.6 21.333-21.333s-9.6-21.333-21.333-21.333zM981.333 554.667h-725.333c-11.776 0-21.333 9.6-21.333 21.333s9.557 21.333 21.333 21.333h725.333c11.733 0 21.333-9.6 21.333-21.333s-9.6-21.333-21.333-21.333zM981.333 426.667h-341.333c-11.733 0-21.333 9.6-21.333 21.333s9.6 21.333 21.333 21.333h341.333c11.733 0 21.333-9.6 21.333-21.333s-9.6-21.333-21.333-21.333zM981.333 298.667h-640c-11.776 0-21.333 9.6-21.333 21.333s9.557 21.333 21.333 21.333h640c11.733 0 21.333-9.6 21.333-21.333s-9.6-21.333-21.333-21.333zM981.333 170.667h-938.667c-11.776 0-21.333 9.6-21.333 21.333s9.557 21.333 21.333 21.333h938.667c11.733 0 21.333-9.6 21.333-21.333s-9.6-21.333-21.333-21.333z" />
<glyph unicode="&#xe90c;" glyph-name="align-right" d="M1002.667 682.667h-981.333c-11.776 0-21.333 9.6-21.333 21.333s9.557 21.333 21.333 21.333h981.333c11.733 0 21.333-9.6 21.333-21.333s-9.6-21.333-21.333-21.333zM789.333 554.667h-768c-11.776 0-21.333 9.6-21.333 21.333s9.557 21.333 21.333 21.333h768c11.733 0 21.333-9.6 21.333-21.333s-9.6-21.333-21.333-21.333zM405.333 426.667h-384c-11.776 0-21.333 9.6-21.333 21.333s9.557 21.333 21.333 21.333h384c11.776 0 21.333-9.6 21.333-21.333s-9.557-21.333-21.333-21.333zM704 298.667h-682.667c-11.776 0-21.333 9.6-21.333 21.333s9.557 21.333 21.333 21.333h682.667c11.733 0 21.333-9.6 21.333-21.333s-9.6-21.333-21.333-21.333zM576 170.667h-554.667c-11.776 0-21.333 9.6-21.333 21.333s9.557 21.333 21.333 21.333h554.667c11.733 0 21.333-9.6 21.333-21.333s-9.6-21.333-21.333-21.333z" />
<glyph unicode="&#xe90d;" glyph-name="alligator" d="M124.459 496.896c-35.285 0-64 28.672-64 64s28.715 64 64 64 64-28.672 64-64-28.715-64-64-64zM124.459 582.229c-11.776 0-21.333-9.643-21.333-21.333 0-11.776 9.557-21.333 21.333-21.333s21.333 9.557 21.333 21.333-9.643 21.333-21.333 21.333zM917.333 170.667h-896c-11.776 0-21.333 9.6-21.333 21.333v368c0 45.184 0 165.333 128 165.333 73.771 0 121.856-48.512 129.067-128h586.624c8.832 24.875 32.555 42.667 60.331 42.667 27.819 0 51.584-17.792 60.416-42.667h38.229c11.733 0 21.333-9.6 21.333-21.333 0-82.688-66.603-149.333-148.437-149.333h-436.565l-49.792-85.333h401.024c81.835 0 148.437-66.603 148.437-148.437 0-11.819-9.6-22.229-21.333-22.229zM42.667 213.333h851.371c-9.557 48.597-52.437 85.333-103.808 85.333h-438.229c-7.637 0-14.677 4.096-18.517 10.709-3.797 6.613-3.755 14.72 0.043 21.376l74.667 128c3.84 6.485 10.837 10.581 18.432 10.581h448.896c51.328 0 94.251 36.736 103.893 85.333h-32.725c-11.776 0-21.333 9.6-21.333 21.333s-9.6 21.333-21.333 21.333c-11.776 0-21.333-9.6-21.333-21.333s-9.6-21.333-21.333-21.333h-624.768c-11.776 0-21.333 9.6-21.333 21.333 0 68.736-31.019 106.667-87.339 106.667-78.763 0-85.333-60.629-85.333-122.667l0.085-346.667zM874.667 362.667c-11.733 0-21.333 9.515-21.333 21.333v42.667c0 11.733 9.6 21.333 21.333 21.333s21.333-9.6 21.333-21.333v-42.667c0-11.819-9.6-21.333-21.333-21.333zM789.333 320c-11.733 0-21.333 9.515-21.333 21.333v42.667c0 11.733 9.6 21.333 21.333 21.333s21.333-9.6 21.333-21.333v-42.667c0-11.819-9.6-21.333-21.333-21.333z" />
<glyph unicode="&#xe90e;" glyph-name="alpha" d="M349.397 20.309c-186.795 0-333.141 151.851-333.141 345.685 0 220.032 124.459 346.24 341.547 346.24 155.861 0 231.125-123.264 282.069-255.659v397.781c0 11.776 9.557 21.333 21.333 21.333s21.333-9.557 21.333-21.333v-489.643c0-9.771-0.384-19.413-1.109-28.971 36.821-113.195 69.248-209.92 130.347-209.92 105.899 0 153.344 79.104 153.344 157.44 0 11.691 9.6 21.333 21.333 21.333s21.333-9.643 21.333-21.333c0-117.845-80.597-200.107-196.011-200.107-74.283 0-112.811 72.235-146.987 168.192-44.416-135.765-167.168-231.040-315.392-231.040zM357.803 669.525c-260.053 0-298.88-190.208-298.88-303.573 0-169.813 127.616-303.019 290.475-303.019 151.851 0 273.024 115.2 288.768 267.947-51.797 159.403-111.104 338.645-280.363 338.645z" />
<glyph unicode="&#xe90f;" glyph-name="amx" d="M670.763 475.435c-118.997-6.997-226.091-20.181-319.445-37.077l21.163 127.232h72.917l70.229-76.715 97.792 76.715h178.688l49.749-60.715 70.229 60.715h111.915l-98.091-85.163c-59.264 1.067-116.437 0.597-171.264-1.152l-70.016 80.085-13.867-83.925zM335.104 341.333l-24.149 62.208c-29.056-5.163-57.301-11.051-84.693-17.664l20.011-55.467h171.563l16.64 90.837c-29.568-3.413-59.008-7.253-87.979-11.733l-11.392-68.181zM763.989 440.021l-115.328-95.317 14.677 93.013c-28.203-1.024-57.045-2.389-86.229-4.181l-17.92-103.083h186.667l79.104 66.859 59.563-66.859h111.104l-84.48 108.587c-42.581 0.981-92.459 1.536-147.157 0.981zM301.184 428.757c-136.576-28.117-239.573-63.915-301.184-98.347l157.355 235.179h90.667l53.163-136.832zM211.328 427.349l-20.651 57.344-36.651-57.344h57.301z" />
<glyph unicode="&#xe910;" glyph-name="anchor" d="M511.531-64c-201.131 0-364.8 163.669-364.8 364.843h42.667c0-177.664 144.512-322.176 322.133-322.176s322.133 144.512 322.133 322.176h42.667c0-201.173-163.627-364.843-364.8-364.843zM509.995 770.133c-52.352 0-94.933 42.581-94.933 94.933s42.581 94.933 94.933 94.933c52.352 0 94.933-42.581 94.933-94.933s-42.581-94.933-94.933-94.933zM509.995 917.333c-28.8 0-52.267-23.467-52.267-52.267s23.467-52.267 52.267-52.267 52.267 23.467 52.267 52.267c0 28.8-23.424 52.267-52.267 52.267zM508.075-41.984c-11.776 0-21.333 9.6-21.333 21.333v810.667c0 11.776 9.557 21.333 21.333 21.333s21.333-9.557 21.333-21.333v-810.667c0-11.776-9.557-21.333-21.333-21.333zM657.408 704.683h-298.667c-11.776 0-21.333 9.557-21.333 21.333s9.557 21.333 21.333 21.333h298.667c11.733 0 21.333-9.557 21.333-21.333s-9.557-21.333-21.333-21.333zM263.467 278.016c-0.299 0-0.555 0-0.853 0h-189.056c-7.637 0-14.677 4.096-18.475 10.667-3.797 6.656-3.797 14.763 0 21.333l94.549 163.712c3.797 6.613 10.837 10.667 18.475 10.667v0c7.637 0 14.677-4.053 18.475-10.667l91.947-159.275c3.883-3.883 6.272-9.216 6.272-15.104 0-11.776-9.6-21.333-21.333-21.333zM110.507 320.683h115.157l-57.557 99.755-57.6-99.755zM950.4 278.016c-0.341 0-0.597 0-0.853 0h-189.099c-7.637 0-14.677 4.096-18.517 10.667-3.755 6.656-3.755 14.763 0 21.333l94.592 163.712c3.797 6.613 10.837 10.667 18.475 10.667v0c7.637 0 14.72-4.053 18.475-10.667l91.989-159.275c3.84-3.883 6.229-9.216 6.229-15.104 0.043-11.776-9.515-21.333-21.291-21.333zM797.44 320.683h115.115l-57.557 99.755-57.557-99.755z" />
<glyph unicode="&#xe911;" glyph-name="android" d="M646.656 121.771h-269.355c-78.677 0-142.677 64-142.677 142.677v347.989c0 11.776 9.557 21.333 21.333 21.333h512c11.776 0 21.333-9.557 21.333-21.333v-347.989c0.043-78.677-63.957-142.677-142.635-142.677zM277.333 591.104v-326.656c0-55.083 44.885-100.011 100.011-100.011h269.355c55.125 0 100.011 44.843 100.011 100.011v326.656h-469.376zM384-45.355c-37.077 0-64 24.619-64 58.667v151.083h42.667v-151.083c0-14.933 16.341-16 21.333-16s21.333 1.067 21.333 16v151.083h42.667v-151.083c0-33.963-26.923-58.667-64-58.667zM640-45.355c-37.077 0-64 24.619-64 58.667v151.083h42.667v-151.083c0-14.933 16.341-16 21.333-16s21.333 1.067 21.333 16v151.083h42.667v-151.083c0-33.963-26.923-58.667-64-58.667zM750.592 676.437h-477.184c-6.101 0-11.904 2.645-15.957 7.168s-5.973 10.667-5.205 16.683c16.64 138.155 111.317 217.472 259.755 217.472s243.115-79.232 259.755-217.472c0.768-6.016-1.152-12.16-5.205-16.683s-9.899-7.168-15.957-7.168zM298.496 719.104h427.008c-28.16 135.083-144.299 155.947-213.504 155.947s-185.344-20.864-213.504-155.947zM654.635 838.997c-4.523 0-9.131 1.451-13.013 4.437-9.387 7.168-11.136 20.565-3.968 29.909l45.909 59.691c7.168 9.344 20.523 11.051 29.909 3.925 9.344-7.211 11.093-20.565 3.925-29.952l-45.909-59.691c-4.139-5.504-10.496-8.32-16.853-8.32zM359.211 838.997c-6.357 0-12.715 2.859-16.896 8.32l-45.867 59.648c-7.211 9.387-5.461 22.784 3.925 29.952 9.301 7.125 22.613 5.419 29.909-3.925l45.867-59.691c7.168-9.301 5.419-22.699-3.883-29.867-3.925-2.987-8.533-4.437-13.056-4.437zM896 292.437c-35.285 0-64 28.715-64 64v213.333c0 35.285 28.715 64 64 64s64-28.715 64-64v-213.333c0-35.328-28.715-64-64-64zM896 591.104c-11.563 0-21.333-9.771-21.333-21.333v-213.333c0-11.733 9.6-21.333 21.333-21.333s21.333 9.6 21.333 21.333v213.333c0 11.563-9.771 21.333-21.333 21.333zM128 292.437c-35.285 0-64 28.715-64 64v213.333c0 35.285 28.715 64 64 64s64-28.715 64-64v-213.333c0-35.328-28.715-64-64-64zM128 591.104c-11.563 0-21.333-9.771-21.333-21.333v-213.333c0-11.733 9.6-21.333 21.333-21.333s21.333 9.6 21.333 21.333v213.333c0 11.563-9.771 21.333-21.333 21.333z" />
<glyph unicode="&#xe912;" glyph-name="angel" d="M504.96 533.077c-82.347 0-149.333 66.987-149.333 149.333 0 82.304 66.987 149.333 149.333 149.333 82.389 0 149.333-67.029 149.333-149.333 0-82.389-66.944-149.333-149.333-149.333zM504.96 789.077c-58.795 0-106.667-47.872-106.667-106.667s47.872-106.667 106.667-106.667 106.667 47.872 106.667 106.667-47.829 106.667-106.667 106.667zM569.813 875.349h-128c-11.776 0-21.333 9.557-21.333 21.333s9.557 21.333 21.333 21.333h128c11.776 0 21.333-9.557 21.333-21.333s-9.515-21.333-21.333-21.333zM505.984-22.016c-86.229 0.512-240.683 6.229-308.693 39.595-7.339 3.584-11.947 11.008-11.947 19.157 0.171 184.576 106.496 467.072 210.645 559.659 8.789 7.851 22.229 7.083 30.123-1.792 7.851-8.789 7.040-22.272-1.792-30.123-92.672-82.432-190.763-341.547-196.096-513.792 49.621-18.517 149.205-29.355 277.76-29.995 128.341 0.725 227.84 11.563 277.504 29.995-5.333 172.16-103.424 431.317-196.096 513.792-8.747 7.808-9.6 21.333-1.749 30.123 7.893 8.832 21.248 9.6 30.165 1.792 104.064-92.629 210.432-375.083 210.603-559.659 0-8.107-4.651-15.573-11.989-19.157-68.011-33.323-222.464-39.168-308.437-39.595zM265.6 304.981c-1.152 0-2.347 0.085-3.541 0.256-69.163 11.563-121.643 45.355-155.904 100.352-79.744 127.744-34.816 322.005-11.819 399.616 5.888 19.84 22.955 33.835 43.563 35.755 20.523 1.792 39.979-8.832 49.365-27.307 49.92-98.261 154.24-195.627 227.712-212.48 11.477-2.645 18.688-14.080 16-25.6s-14.123-18.645-25.557-16c-86.955 19.968-199.509 123.093-256.213 234.709-1.408 2.731-4.352 4.437-7.381 4.096-3.115-0.299-5.675-2.389-6.528-5.333-44.501-150.059-41.813-286.464 7.125-364.885 27.563-44.117 70.229-71.253 126.805-80.811 11.605-1.963 19.456-12.971 17.493-24.576-1.877-10.368-10.923-17.792-21.12-17.792zM758.187 304.981c-10.155 0-19.243 7.381-20.992 17.749-1.92 11.648 5.931 22.656 17.493 24.661 56.576 9.429 99.243 36.651 126.848 80.768 48.896 78.379 51.584 214.869 7.083 364.971-0.853 2.944-3.328 5.035-6.4 5.291-2.987 0.213-6.101-1.323-7.509-4.053-56.747-111.701-169.259-214.784-256.085-234.709-11.52-2.603-22.955 4.48-25.6 16-2.645 11.477 4.523 22.955 16 25.557 73.515 16.896 177.835 114.176 227.755 212.437 9.344 18.432 28.416 29.227 49.323 27.221 20.437-1.792 37.675-15.787 43.563-35.669 22.997-77.611 67.925-271.957-11.819-399.659-34.261-54.955-86.741-88.661-155.819-100.267-1.451-0.213-2.688-0.299-3.84-0.299z" />
<glyph unicode="&#xe913;" glyph-name="angel-smiley" d="M448 352.171c-11.776 0-21.333 9.557-21.333 21.333 0 23.509-19.157 42.667-42.667 42.667s-42.667-19.157-42.667-42.667c0-11.776-9.557-21.333-21.333-21.333s-21.333 9.557-21.333 21.333c0 47.061 38.272 85.333 85.333 85.333s85.333-38.272 85.333-85.333c0-11.776-9.557-21.333-21.333-21.333zM704 352.171c-11.733 0-21.333 9.557-21.333 21.333 0 23.509-19.157 42.667-42.667 42.667s-42.667-19.157-42.667-42.667c0-11.776-9.6-21.333-21.333-21.333s-21.333 9.557-21.333 21.333c0 47.061 38.229 85.333 85.333 85.333s85.333-38.272 85.333-85.333c0-11.776-9.6-21.333-21.333-21.333zM108.757 285.568c-3.84 0-7.723 0.981-11.221 3.2-28.715 17.792-56.363 37.376-82.176 58.325-9.131 7.424-10.581 20.864-3.157 30.037 7.424 9.088 20.864 10.539 30.037 3.157 24.405-19.883 50.603-38.357 77.781-55.168 10.027-6.229 13.099-19.413 6.912-29.355-4.053-6.613-11.051-10.197-18.176-10.197zM915.285 285.525c-7.125 0-14.123 3.584-18.219 10.112-6.187 10.027-3.072 23.125 6.912 29.355 27.093 16.811 53.333 35.413 77.909 55.339 9.173 7.424 22.571 5.973 29.995-3.157 7.424-9.173 6.016-22.571-3.157-30.037-25.941-21.077-53.675-40.704-82.261-58.453-3.499-2.091-7.339-3.157-11.179-3.157zM144.043 441.899c-4.437 0-8.875 1.365-12.672 4.181-41.387 30.635-79.104 66.304-112.085 106.027-7.509 9.045-6.272 22.528 2.773 30.080 9.003 7.509 22.485 6.272 30.037-2.688 30.805-37.077 66.005-70.357 104.661-98.987 9.472-7.040 11.477-20.395 4.437-29.824-4.139-5.76-10.581-8.789-17.152-8.789zM877.013 439.765c-6.571 0-13.099 3.029-17.237 8.747-6.997 9.515-4.907 22.869 4.565 29.824 39.851 29.227 76.032 63.147 107.563 101.205 7.552 9.045 20.992 10.325 29.995 2.688 9.088-7.509 10.325-20.992 2.773-30.037-33.749-40.661-72.448-77.099-115.115-108.373-3.797-2.731-8.192-4.053-12.544-4.053zM512 745.984c-125.653 0-220.459 45.867-220.459 106.667s94.763 106.667 220.459 106.667c125.653 0 220.459-45.867 220.459-106.667 0-60.757-94.805-106.667-220.459-106.667zM512 916.651c-108.501 0-177.792-37.888-177.792-64s69.248-64 177.792-64 177.792 37.888 177.792 64c0 26.155-69.291 64-177.792 64zM512-63.317c-188.203 0-341.333 153.131-341.333 341.333s153.131 341.333 341.333 341.333 341.333-153.131 341.333-341.333-153.131-341.333-341.333-341.333zM512 576.683c-164.693 0-298.667-133.973-298.667-298.667s133.973-298.667 298.667-298.667c164.651 0 298.667 133.973 298.667 298.667s-134.016 298.667-298.667 298.667zM512 64.683c-117.632 0-213.333 95.701-213.333 213.333 0 11.733 9.557 21.333 21.333 21.333s21.333-9.6 21.333-21.333c0-94.123 76.544-170.667 170.667-170.667s170.667 76.544 170.667 170.667c0 11.733 9.6 21.333 21.333 21.333s21.333-9.6 21.333-21.333c0-117.632-95.701-213.333-213.333-213.333zM512-63.317c-282.325 0-512 229.675-512 512 0 93.995 26.197 186.368 75.819 267.179 3.883 6.272 10.752 10.155 18.176 10.155v0c7.424 0 14.293-3.883 18.176-10.155 47.317-77.099 115.115-138.624 196.096-177.877 10.624-5.12 15.019-17.877 9.856-28.501s-17.877-15.061-28.501-9.813c-77.653 37.675-144.213 94.123-194.219 164.352-34.603-66.688-52.736-140.459-52.736-215.253 0-258.688 210.56-469.333 469.333-469.333 258.731 0 469.333 210.645 469.333 469.333 0 74.837-18.133 148.565-52.736 215.211-50.432-70.784-117.589-127.531-196.053-165.205-10.667-5.12-23.381-0.597-28.459 9.984-5.12 10.624-0.683 23.339 9.984 28.459 81.664 39.253 150.101 101.035 197.717 178.688 7.765 12.629 28.587 12.629 36.395 0 49.621-80.811 75.819-173.184 75.819-267.179 0-282.411-229.675-512.043-512-512.043z" />
<glyph unicode="&#xe914;" glyph-name="angry" d="M236.715 149.333c-4.949 0-9.856 1.707-13.909 5.163-8.917 7.68-9.941 21.163-2.304 30.080 73.088 85.163 179.328 134.016 291.499 134.016 111.744 0 217.771-48.555 290.816-133.248 7.723-8.832 6.656-22.315-2.261-30.080-8.832-7.68-22.357-6.656-30.080 2.261-64.939 75.264-159.147 118.357-258.517 118.357-99.669 0-194.133-43.435-259.115-119.125-4.181-4.907-10.155-7.424-16.128-7.424zM512-64c-282.325 0-512 229.675-512 512s229.675 512 512 512 512-229.675 512-512-229.675-512-512-512zM512 917.333c-258.773 0-469.333-210.56-469.333-469.333 0-258.731 210.56-469.333 469.333-469.333 258.731 0 469.333 210.603 469.333 469.333 0 258.773-210.603 469.333-469.333 469.333zM426.667 682.667c-3.2 0-6.443 0.725-9.515 2.261l-170.667 85.333c-10.539 5.291-14.805 18.091-9.557 28.629 5.291 10.539 18.048 14.763 28.629 9.6l170.667-85.333c10.539-5.291 14.805-18.091 9.557-28.629-3.797-7.552-11.307-11.861-19.115-11.861zM597.333 682.667c-7.851 0-15.317 4.309-19.115 11.776-5.291 10.539-0.939 23.339 9.557 28.629l170.667 85.333c10.581 5.248 23.339 0.981 28.672-9.557 5.248-10.539 0.896-23.339-9.6-28.629l-170.667-85.333c-3.029-1.493-6.272-2.219-9.515-2.219zM320 448c-58.795 0-106.667 47.872-106.667 106.667s47.872 106.667 106.667 106.667 106.667-47.872 106.667-106.667-47.872-106.667-106.667-106.667zM320 618.667c-35.285 0-64-28.715-64-64s28.715-64 64-64 64 28.715 64 64-28.715 64-64 64zM704 448c-58.795 0-106.667 47.872-106.667 106.667s47.872 106.667 106.667 106.667 106.667-47.872 106.667-106.667-47.872-106.667-106.667-106.667zM704 618.667c-35.285 0-64-28.715-64-64s28.715-64 64-64 64 28.715 64 64-28.715 64-64 64z" />
<glyph unicode="&#xe915;" glyph-name="apple" d="M684.672-54.016c-40.405 0-80 20.864-114.987 39.339-22.229 11.648-45.227 23.851-57.813 23.851-8.747 0-30.421-11.392-49.493-21.461-35.328-18.603-79.317-41.728-122.453-41.728-22.059 0-41.771 6.016-59.051 17.877-126.251 87.168-261.12 251.392-261.12 450.645 0 199.979 128.683 368.896 281.003 368.896 51.84 0 86.997-26.539 118.059-49.963 29.568-22.272 55.211-41.6 93.184-41.6s63.488 19.285 93.141 41.6c31.104 23.424 66.261 49.963 118.101 49.963 152.32 0 281.003-168.917 281.003-368.896 0-199.211-134.827-363.435-261.248-450.645-17.323-11.861-36.907-17.877-58.325-17.877zM511.872 51.84c23.125 0 48.384-13.355 77.653-28.757 43.648-23.083 95.573-47.232 128.981-24.064 117.419 81.024 242.731 232.832 242.731 415.488 0 176.853-109.184 326.229-238.336 326.229-37.589 0-63.019-19.157-92.416-41.344-31.104-23.552-66.517-50.219-118.827-50.219-52.267 0-87.595 26.667-118.741 50.219-29.397 22.144-54.827 41.301-92.373 41.301-129.195 0-238.379-149.376-238.379-326.229 0-182.699 125.397-334.464 242.731-415.488 34.603-23.979 93.355 3.328 137.344 26.453 28.203 14.805 50.261 26.411 69.632 26.411zM526.677 772.181c-6.571 0-12.8 3.029-16.896 8.277-4.139 5.333-5.504 12.331-3.669 18.859 1.749 6.144 43.904 150.656 167.808 150.656 19.328 0 39.765-3.712 60.587-11.093 10.155-3.584 16.171-14.293 13.653-24.832-20.267-89.344-165.931-140.629-221.013-141.909-0.128 0.043-0.299 0.043-0.469 0.043zM673.835 907.349c-60.416 0-96.171-51.797-113.493-87.211 49.323 12.459 114.688 45.483 138.325 84.608-8.491 1.707-16.853 2.603-24.832 2.603zM512.512 649.173c-11.733 0-21.333 9.6-21.333 21.333 0 192.299-41.003 213.333-128 213.333-11.733 0-21.333 9.6-21.333 21.333 0 11.776 9.6 21.333 21.333 21.333 129.152 0 170.667-62.208 170.667-256 0-11.776-9.557-21.333-21.333-21.333z" />
<glyph unicode="&#xe916;" glyph-name="apple-bite" d="M539.733 746.667c-5.931 0-11.563 2.432-15.573 6.784-4.565 4.949-6.571 11.776-5.376 18.475 10.624 57.429 59.477 166.059 167.808 166.059 15.019 0 30.805-2.048 46.976-6.144 10.496-2.688 17.323-12.757 15.915-23.509-12.075-90.795-152.448-155.179-207.104-161.493-1.024-0.128-1.792-0.171-2.645-0.171zM686.507 895.275c-68.352 0-101.589-58.88-116.139-97.835 48.213 16.853 110.464 55.851 130.56 97.024-4.907 0.555-9.728 0.811-14.421 0.811zM716.757-41.984v0c-28.757 0-53.419 14.251-79.488 29.355-28.928 16.725-58.752 33.963-97.536 33.963s-68.651-17.237-97.621-33.877c-26.112-15.061-50.773-29.312-79.531-29.312-18.432 0-35.84 5.845-53.163 17.835-125.824 87.253-260.352 251.392-260.352 450.688 0 217.771 165.12 369.579 313.301 369.579 68.053 0 129.963-28.928 180.139-83.968 124.416 96.512 253.056 109.397 351.019 37.589 8.32-6.229 11.136-17.493 6.4-26.795-8.661-17.067-13.013-34.773-13.013-52.523 0-4.352 0.683-8.533 1.237-12.715 1.237-8.704-2.688-19.925-10.283-24.235-37.504-21.077-60.8-60.416-60.8-102.656 0-60.245 45.483-110.507 105.813-116.949 7.253-0.768 13.483-5.163 16.853-11.691 3.285-6.528 2.901-14.251-0.853-20.437-11.435-18.944-17.067-39.296-17.067-60.331 0-35.712 16.427-69.291 45.099-92.117 8.021-6.315 10.283-17.536 5.589-26.624-46.080-87.893-118.144-168.448-202.752-226.944-17.323-12.032-34.645-17.835-52.992-17.835zM539.733 64c50.176 0 88.235-22.016 118.827-39.765 21.931-12.672 40.875-23.595 58.155-23.595v0c9.515 0 18.645 3.2 28.672 10.155 74.411 51.413 138.24 120.96 181.333 197.163-30.421 30.208-47.573 70.656-47.573 113.451 0 18.859 3.541 37.845 10.368 55.808-67.328 19.84-115.115 81.493-115.115 153.643 0 52.821 26.539 102.229 70.187 132.139-0.171 2.56-0.341 4.992-0.341 7.467 0 18.432 3.328 36.608 9.899 54.357-83.925 51.541-193.493 30.763-300.757-58.624-4.437-3.669-10.155-5.291-15.787-4.821-5.717 0.597-10.965 3.413-14.549 7.893-44.075 55.125-99.669 84.224-160.811 84.224-128 0-270.635-134.229-270.635-326.912 0-182.784 125.099-334.507 241.963-415.531 28.373-19.712 52.949-6.315 87.125 13.312 30.805 17.621 68.864 39.637 119.040 39.637z" />
<glyph unicode="&#xe917;" glyph-name="argentina" d="M21.333-42.667c-11.776 0-21.333 9.6-21.333 21.333v938.667c0 11.776 9.557 21.333 21.333 21.333s21.333-9.557 21.333-21.333v-938.667c0-11.733-9.557-21.333-21.333-21.333zM1002.667 192h-981.333c-11.776 0-21.333 9.6-21.333 21.333v682.667c0 11.776 9.557 21.333 21.333 21.333h981.333c11.733 0 21.333-9.557 21.333-21.333v-682.667c0-11.733-9.6-21.333-21.333-21.333zM42.667 234.667h938.667v640h-938.667v-640zM981.333 704h-938.667c-11.776 0-21.333 9.557-21.333 21.333s9.557 21.333 21.333 21.333h938.667c11.733 0 21.333-9.557 21.333-21.333s-9.6-21.333-21.333-21.333zM981.333 362.667h-938.667c-11.776 0-21.333 9.6-21.333 21.333s9.557 21.333 21.333 21.333h938.667c11.733 0 21.333-9.6 21.333-21.333s-9.6-21.333-21.333-21.333zM512 448c-58.795 0-106.667 47.872-106.667 106.667s47.872 106.667 106.667 106.667 106.667-47.872 106.667-106.667-47.872-106.667-106.667-106.667zM512 618.667c-35.285 0-64-28.715-64-64s28.715-64 64-64 64 28.715 64 64-28.715 64-64 64z" />
<glyph unicode="&#xe918;" glyph-name="arrow-around" d="M124.587 385.877c-5.205 0-10.325 1.877-14.379 5.589l-96.597 88.149c-8.704 7.979-9.344 21.461-1.365 30.123 8.021 8.789 21.461 9.344 30.123 1.408l84.011-76.672 93.397 64.896c9.643 6.741 22.997 4.352 29.696-5.291 6.699-9.685 4.352-22.997-5.333-29.739l-107.435-74.624c-3.627-2.603-7.808-3.84-12.117-3.84zM124.587 426.667c-11.733 0-21.333 9.515-21.333 21.333 0 225.451 183.851 408.875 409.771 408.875 176.896 0 333.184-112.427 388.949-279.808 3.712-11.179-2.347-23.253-13.483-27.008-11.264-3.712-23.253 2.304-27.008 13.525-49.92 149.888-189.995 250.624-348.459 250.624-202.411 0-367.104-164.309-367.104-366.208 0-11.819-9.557-21.333-21.333-21.333zM996.011 377.088c-5.248 0-10.581 1.92-14.72 5.931l-82.261 78.549-94.848-62.763c-9.856-6.528-23.083-3.797-29.568 6.059-6.485 9.771-3.797 23.083 6.016 29.525l109.099 72.192c8.192 5.461 19.285 4.523 26.496-2.389l94.549-90.368c8.533-8.107 8.832-21.632 0.683-30.165-4.224-4.309-9.771-6.571-15.445-6.571zM513.024 39.125c-176.896 0-333.227 112.427-388.949 279.893-3.712 11.179 2.304 23.253 13.483 26.923 11.221 3.755 23.253-2.304 26.965-13.44 49.963-149.973 189.995-250.667 348.459-250.667 202.411 0 367.104 164.309 367.104 366.208 0 11.819 9.6 21.333 21.333 21.333 11.776 0 21.333-9.515 21.333-21.333 0.043-225.493-183.765-408.917-409.728-408.917zM513.024 320c-70.571 0-128 57.429-128 128s57.429 128 128 128c70.528 0 128-57.429 128-128s-57.429-128-128-128zM513.024 533.333c-47.104 0-85.333-38.315-85.333-85.333 0-47.104 38.229-85.333 85.333-85.333 47.061 0 85.333 38.229 85.333 85.333 0 47.019-38.272 85.333-85.333 85.333z" />
<glyph unicode="&#xe919;" glyph-name="arrow-back" d="M501.333-42.667c-7.552 0-14.891 4.011-18.688 11.136l-256 469.333c-3.499 6.315-3.499 14.080 0 20.437l256 469.333c5.632 10.325 18.645 14.165 28.928 8.533 10.368-5.675 14.165-18.603 8.533-28.928l-250.496-459.179 250.453-459.136c5.632-10.368 1.835-23.296-8.533-28.971-3.2-1.707-6.699-2.56-10.197-2.56zM778.667 405.333h-384c-11.733 0-21.333 9.557-21.333 21.333 0 11.733 9.6 21.333 21.333 21.333h384c11.776 0 21.333-9.557 21.333-21.333s-9.557-21.333-21.333-21.333z" />
<glyph unicode="&#xe91a;" glyph-name="arrow-back-2" d="M896-63.957h-256c-5.333 0-10.496 2.005-14.421 5.589l-512 469.333c-4.309 3.968-6.827 9.472-6.912 15.275-0.128 5.803 2.133 11.435 6.229 15.488l512 512c4.011 4.053 9.429 6.272 15.104 6.272h256c8.576 0 16.341-5.205 19.669-13.184s1.493-17.152-4.565-23.253l-496.256-496.256 495.573-454.272c6.485-5.973 8.661-15.189 5.461-23.424-3.157-8.192-11.051-13.568-19.883-13.568zM648.277-21.291h192.896l-471.595 432.256c-4.309 3.968-6.784 9.472-6.912 15.275s2.133 11.435 6.229 15.488l475.563 475.605h-195.669l-489.984-489.984 489.472-448.64z" />
<glyph unicode="&#xe91b;" glyph-name="arrow-back-3" d="M618.667-42.667c-6.272 0-12.373 2.731-16.512 7.851l-384 469.333c-6.4 7.893-6.4 19.157 0 27.008l384 469.333c5.717 6.997 15.147 9.643 23.68 6.571 8.491-3.029 14.165-11.093 14.165-20.096v-938.667c0-9.003-5.675-17.067-14.165-20.139-2.347-0.811-4.779-1.195-7.168-1.195zM262.229 448l335.104-409.6v819.157l-335.104-409.557zM789.333-42.667c-11.776 0-21.333 9.515-21.333 21.333v938.667c0 11.819 9.557 21.333 21.333 21.333 11.733 0 21.333-9.515 21.333-21.333v-938.667c0-11.819-9.6-21.333-21.333-21.333z" />
<glyph unicode="&#xe91c;" glyph-name="arrow-barrier" d="M277.333 704c-4.651 0-9.387 1.536-13.312 4.651l-93.355 74.667-93.355-74.667c-9.216-7.381-22.613-5.845-29.995 3.328-7.339 9.173-5.845 22.613 3.328 29.995l106.667 85.333c7.808 6.229 18.859 6.229 26.667 0l106.667-85.333c9.173-7.381 10.667-20.821 3.328-29.995-4.181-5.248-10.411-7.979-16.64-7.979zM170.667 64c-11.776 0-21.333 9.515-21.333 21.333v725.333c0 11.819 9.557 21.333 21.333 21.333s21.333-9.515 21.333-21.333v-725.333c0-11.819-9.557-21.333-21.333-21.333zM618.667 704c-4.651 0-9.429 1.536-13.355 4.651l-93.312 74.667-93.355-74.667c-9.216-7.381-22.613-5.845-29.995 3.328-7.339 9.173-5.845 22.613 3.328 29.995l106.667 85.333c7.808 6.229 18.859 6.229 26.667 0l106.667-85.333c9.173-7.381 10.667-20.821 3.328-29.995-4.181-5.248-10.411-7.979-16.64-7.979zM512 64c-11.776 0-21.333 9.515-21.333 21.333v725.333c0 11.819 9.557 21.333 21.333 21.333s21.333-9.515 21.333-21.333v-725.333c0-11.819-9.557-21.333-21.333-21.333zM960 704c-4.651 0-9.429 1.536-13.355 4.651l-93.312 74.667-93.355-74.667c-9.259-7.381-22.656-5.845-29.995 3.328s-5.845 22.613 3.328 29.995l106.667 85.333c7.808 6.229 18.816 6.229 26.667 0l106.667-85.333c9.173-7.381 10.667-20.821 3.328-29.995-4.181-5.248-10.411-7.979-16.64-7.979zM853.333 64c-11.733 0-21.333 9.515-21.333 21.333v725.333c0 11.819 9.6 21.333 21.333 21.333s21.333-9.515 21.333-21.333v-725.333c0-11.819-9.6-21.333-21.333-21.333zM21.333 640h981.333v-42.667h-981.333v42.667zM21.333 213.333h981.333v-42.667h-981.333v42.667z" />
<glyph unicode="&#xe91d;" glyph-name="arrow-circle" d="M561.323-12.629c-253.995 0-460.629 206.592-460.629 460.629 0 253.995 206.635 460.629 460.629 460.629s460.587-206.635 460.587-460.629c0.043-253.995-206.592-460.629-460.587-460.629zM561.323 865.963c-230.485 0-417.963-187.52-417.963-417.963 0-230.4 187.52-417.963 417.963-417.963 230.4 0 417.92 187.563 417.92 417.963 0 230.443-187.392 417.963-417.92 417.963zM122.027 426.667c-5.547 0-11.093 2.133-15.232 6.357l-98.603 100.565c-8.235 8.448-8.107 21.931 0.299 30.208 8.363 8.235 21.931 8.107 30.165-0.299l86.059-87.765 101.248 69.717c9.728 6.741 23.040 4.267 29.653-5.461 6.699-9.685 4.267-22.955-5.461-29.696l-116.011-79.915c-3.669-2.475-7.893-3.712-12.117-3.712z" />
<glyph unicode="&#xe91e;" glyph-name="arrow-cross" d="M1002.667 447.957h-981.333c-11.776 0-21.333 9.557-21.333 21.333s9.557 21.333 21.333 21.333h981.333c11.733 0 21.333-9.557 21.333-21.333s-9.6-21.333-21.333-21.333zM913.237 333.184c-4.48 0-9.088 1.408-12.928 4.437-9.472 7.125-11.221 20.565-4.096 29.909l79.445 103.893-79.445 103.851c-7.125 9.387-5.376 22.784 4.096 29.909 9.344 7.168 22.656 5.376 29.824-3.968l89.429-116.821c5.888-7.637 5.888-18.261 0-25.899l-89.429-116.821c-4.096-5.632-10.368-8.491-16.896-8.491zM110.763 333.184c-6.4 0-12.757 2.901-16.939 8.363l-89.429 116.821c-5.845 7.637-5.845 18.261 0 25.899l89.429 116.821c7.125 9.344 20.608 11.136 29.909 3.925 9.344-7.168 11.136-20.523 3.968-29.909l-79.488-103.851 79.488-103.936c7.168-9.344 5.376-22.741-3.968-29.909-3.883-2.859-8.448-4.224-12.971-4.224zM512-42.709c-11.776 0-21.333 9.557-21.333 21.333v938.667c0 11.819 9.557 21.333 21.333 21.333s21.333-9.515 21.333-21.333v-938.667c0-11.776-9.557-21.333-21.333-21.333zM628.821 827.904c-4.523 0-9.088 1.408-12.928 4.395l-103.893 79.445-103.893-79.445c-9.301-7.168-22.699-5.376-29.909 3.968-7.168 9.344-5.376 22.784 3.968 29.909l116.821 89.429c7.637 5.845 18.304 5.845 25.899 0l116.821-89.429c9.344-7.125 11.136-20.523 3.968-29.909-4.096-5.504-10.411-8.363-16.853-8.363zM512-64.043c-4.565 0-9.131 1.451-12.971 4.437l-116.821 89.387c-9.344 7.125-11.136 20.523-3.968 29.909s20.565 11.136 29.909 3.968l103.893-79.403 103.893 79.403c9.344 7.168 22.827 5.376 29.909-3.968 7.168-9.387 5.419-22.784-3.968-29.909l-116.821-89.387c-3.925-2.987-8.491-4.437-13.056-4.437z" />
<glyph unicode="&#xe91f;" glyph-name="arrow-down" d="M512 298.667c-3.541 0-7.040 0.896-10.197 2.645l-469.333 256c-10.325 5.589-14.165 18.56-8.491 28.928 5.632 10.325 18.688 14.165 28.928 8.533l459.093-250.453 459.136 250.453c10.325 5.632 23.339 1.792 28.971-8.533 5.632-10.368 1.835-23.296-8.533-28.928l-469.333-256c-3.2-1.749-6.699-2.645-10.24-2.645z" />
<glyph unicode="&#xe920;" glyph-name="arrow-down-2" d="M512 213.333c-3.541 0-7.040 0.896-10.197 2.645l-469.333 256c-10.368 5.632-14.165 18.56-8.533 28.928 5.632 10.325 18.688 14.165 28.928 8.533l459.136-250.453 459.179 250.453c10.283 5.632 23.253 1.792 28.928-8.533 5.589-10.368 1.835-23.296-8.533-28.928l-469.333-256c-3.2-1.749-6.699-2.645-10.24-2.645zM512 384c-3.541 0-7.040 0.896-10.197 2.645l-469.333 256c-10.368 5.632-14.165 18.56-8.533 28.928 5.632 10.325 18.688 14.165 28.928 8.533l459.136-250.453 459.179 250.453c10.283 5.632 23.253 1.792 28.928-8.533 5.589-10.368 1.835-23.296-8.533-28.928l-469.333-256c-3.2-1.749-6.699-2.645-10.24-2.645z" />
<glyph unicode="&#xe921;" glyph-name="arrow-down-3" d="M512 149.333c-4.779 0-9.6 1.621-13.483 4.821l-469.333 384c-6.997 5.717-9.643 15.147-6.613 23.68 3.072 8.491 11.093 14.165 20.096 14.165h938.667c9.003 0 17.067-5.675 20.139-14.165 3.029-8.533 0.384-17.963-6.571-23.68l-469.333-384c-3.968-3.2-8.832-4.821-13.568-4.821zM102.4 533.333l409.6-335.104 409.557 335.104h-819.157zM981.333 704h-938.667c-11.776 0-21.333 9.557-21.333 21.333s9.557 21.333 21.333 21.333h938.667c11.733 0 21.333-9.557 21.333-21.333s-9.6-21.333-21.333-21.333z" />
<glyph unicode="&#xe922;" glyph-name="arrow-down-in-circle" d="M512 320c-3.669 0-7.296 0.896-10.581 2.731l-298.667 170.667c-10.24 5.888-13.739 18.859-8.021 29.141 5.973 10.283 18.944 13.696 29.184 7.936l288.085-164.565 288.085 164.608c10.069 5.76 23.211 2.347 29.184-7.936 5.888-10.283 2.261-23.253-8.021-29.141l-298.667-170.667c-3.285-1.877-6.912-2.773-10.581-2.773zM512 917.333c258.731 0 469.333-210.56 469.333-469.333 0-258.816-210.603-469.333-469.333-469.333s-469.333 210.517-469.333 469.333c0 258.773 210.603 469.333 469.333 469.333zM512 960c-282.752 0-512-229.248-512-512 0-282.709 229.248-512 512-512s512 229.291 512 512c0 282.752-229.248 512-512 512v0z" />
<glyph unicode="&#xe923;" glyph-name="arrow-fork" d="M512.043-42.667c-11.776 0-21.333 9.515-21.333 21.333v426.667c0 11.819 9.557 21.333 21.333 21.333 11.733 0 21.333-9.515 21.333-21.333v-426.667c0-11.819-9.6-21.333-21.333-21.333zM512.043 394.667c-11.776 0-21.333 9.6-21.333 21.333 0 11.776 9.557 21.333 21.333 21.333 55.851 0 106.667 55.936 106.667 117.333v362.667c0 11.819 9.557 21.333 21.333 21.333 11.733 0 21.333-9.515 21.333-21.333v-362.667c0-85.248-69.803-160-149.333-160zM512.043 394.667c-79.531 0-149.333 74.752-149.333 160v234.667c0 11.819 9.557 21.333 21.333 21.333 11.733 0 21.333-9.515 21.333-21.333v-234.667c0-61.397 50.773-117.333 106.667-117.333 11.733 0 21.333-9.557 21.333-21.333 0-11.733-9.6-21.333-21.333-21.333zM746.709 810.667c-4.651 0-9.429 1.536-13.355 4.651l-93.355 74.667-93.355-74.667c-9.216-7.381-22.571-5.845-29.995 3.328-7.339 9.173-5.845 22.613 3.328 29.995l106.667 85.333c7.851 6.229 18.859 6.229 26.667 0l106.667-85.333c9.173-7.381 10.667-20.821 3.328-29.995-4.139-5.248-10.411-7.979-16.597-7.979zM490.709 725.333c-4.651 0-9.429 1.536-13.355 4.651l-93.355 74.667-93.355-74.667c-9.216-7.381-22.613-5.845-29.995 3.328-7.296 9.173-5.803 22.613 3.371 29.995l106.667 85.333c7.851 6.229 18.859 6.229 26.667 0l106.667-85.333c9.173-7.381 10.667-20.821 3.328-29.995-4.181-5.248-10.453-7.979-16.64-7.979z" />
<glyph unicode="&#xe924;" glyph-name="arrow-forward" d="M544-42.709c-3.456 0-6.955 0.896-10.197 2.645-10.368 5.675-14.165 18.603-8.533 28.971l250.453 459.093-250.453 459.136c-5.632 10.325-1.835 23.253 8.533 28.928 10.283 5.632 23.296 1.792 28.928-8.533l256-469.333c3.499-6.357 3.499-14.123 0-20.437l-256-469.333c-3.883-7.083-11.179-11.136-18.731-11.136zM608 405.291h-384c-11.776 0-21.333 9.557-21.333 21.333s9.557 21.333 21.333 21.333h384c11.733 0 21.333-9.557 21.333-21.333s-9.6-21.333-21.333-21.333z" />
<glyph unicode="&#xe925;" glyph-name="arrow-forward-2" d="M384-63.957h-256c-8.789 0-16.683 5.376-19.883 13.525-3.2 8.192-1.024 17.579 5.461 23.509l495.573 454.229-496.256 496.256c-6.101 6.101-7.936 15.189-4.608 23.168 3.285 7.979 11.093 13.227 19.712 13.227h256c5.675 0 11.093-2.261 15.104-6.229l512-512c4.139-4.096 6.315-9.728 6.229-15.531-0.128-5.845-2.645-11.349-6.912-15.232l-512-469.333c-3.925-3.584-9.088-5.589-14.421-5.589zM182.869-21.291h192.896l489.472 448.64-490.069 490.027h-195.669l475.563-475.563c4.139-4.096 6.315-9.728 6.229-15.531-0.128-5.888-2.645-11.392-6.912-15.275l-471.509-432.299z" />
<glyph unicode="&#xe926;" glyph-name="arrow-from" d="M768 373.333c-4.651 0-9.387 1.536-13.355 4.651-9.173 7.339-10.667 20.736-3.328 29.995l74.667 93.355-74.667 93.312c-7.339 9.173-5.845 22.613 3.328 29.995 9.259 7.381 22.613 5.888 29.995-3.328l85.333-106.667c6.229-7.808 6.229-18.859 0-26.667l-85.333-106.667c-4.181-5.248-10.411-7.979-16.64-7.979zM192 288c-11.776 0-21.333 9.515-21.333 21.333v64c0 85.461 90.112 149.333 170.667 149.333h512c11.733 0 21.333-9.557 21.333-21.333s-9.6-21.333-21.333-21.333h-512c-57.984 0-128-47.573-128-106.667v-64c0-11.819-9.557-21.333-21.333-21.333zM981.333 266.667h-938.667c-11.776 0-21.333 9.6-21.333 21.333s9.557 21.333 21.333 21.333h938.667c11.733 0 21.333-9.6 21.333-21.333s-9.6-21.333-21.333-21.333z" />
<glyph unicode="&#xe927;" glyph-name="arrow-inside" d="M586.667 469.333c-4.651 0-9.429 1.536-13.355 4.651-9.259 7.381-10.667 20.779-3.328 29.995l74.667 93.355-74.667 93.312c-7.339 9.173-5.931 22.613 3.328 29.995s22.571 5.888 29.995-3.328l85.333-106.667c6.229-7.808 6.229-18.859 0-26.667l-85.333-106.667c-4.181-5.248-10.411-7.979-16.64-7.979zM992 21.333h-768c-11.733 0-21.333 9.6-21.333 21.333v810.667c0 11.776 9.6 21.333 21.333 21.333h768c11.733 0 21.333-9.557 21.333-21.333v-810.667c0-11.733-9.6-21.333-21.333-21.333zM245.333 64h725.333v768h-725.333v-768zM672 576h-640c-11.733 0-21.333 9.557-21.333 21.333s9.6 21.333 21.333 21.333h640c11.733 0 21.333-9.557 21.333-21.333s-9.6-21.333-21.333-21.333zM586.667 170.667c-4.651 0-9.429 1.536-13.355 4.651-9.259 7.339-10.667 20.736-3.328 29.995l74.667 93.355-74.667 93.355c-7.339 9.173-5.931 22.571 3.328 29.995 9.259 7.339 22.571 5.888 29.995-3.328l85.333-106.667c6.229-7.851 6.229-18.859 0-26.667l-85.333-106.667c-4.181-5.291-10.411-8.021-16.64-8.021zM672 277.333h-640c-11.733 0-21.333 9.6-21.333 21.333s9.6 21.333 21.333 21.333h640c11.733 0 21.333-9.6 21.333-21.333s-9.6-21.333-21.333-21.333z" />
<glyph unicode="&#xe928;" glyph-name="arrow-inside-45" d="M981.333 21.333h-682.667c-11.776 0-21.333 9.6-21.333 21.333v810.667c0 11.776 9.557 21.333 21.333 21.333h682.667c11.733 0 21.333-9.557 21.333-21.333v-810.667c0-11.733-9.6-21.333-21.333-21.333zM320 64h640v768h-640v-768zM640 426.667c-11.733 0-21.333 9.515-21.333 21.333v85.333h-85.333c-11.776 0-21.333 9.557-21.333 21.333s9.557 21.333 21.333 21.333h106.667c11.733 0 21.333-9.557 21.333-21.333v-106.667c0-11.819-9.6-21.333-21.333-21.333zM170.667 64c-5.461 0-10.923 2.091-15.104 6.229-8.32 8.277-8.32 21.845 0 30.165l434.859 434.859c8.32 8.32 21.845 8.32 30.165 0 8.32-8.363 8.32-21.845 0-30.165l-434.859-434.859c-4.181-4.139-9.643-6.229-15.061-6.229zM512 640c-11.776 0-21.333 9.515-21.333 21.333v85.333h-85.333c-11.776 0-21.333 9.557-21.333 21.333s9.557 21.333 21.333 21.333h106.667c11.776 0 21.333-9.557 21.333-21.333v-106.667c0-11.819-9.557-21.333-21.333-21.333zM42.667 277.333c-5.461 0-10.923 2.091-15.104 6.229-8.32 8.277-8.32 21.845 0 30.165l434.859 434.859c8.32 8.32 21.845 8.32 30.165 0 8.32-8.363 8.32-21.845 0-30.165l-434.859-434.859c-4.181-4.139-9.643-6.229-15.061-6.229z" />
<glyph unicode="&#xe929;" glyph-name="arrow-inside-gap" horiz-adv-x="1067" d="M384 85.333c-4.693 0-9.429 1.579-13.355 4.651l-106.667 85.333c-9.173 7.424-10.667 20.736-3.328 30.080 7.339 9.173 20.779 10.667 29.995 3.243l93.355-74.667 93.355 74.667c9.216 7.339 22.613 5.845 29.995-3.328 7.339-9.259 5.845-22.613-3.328-29.995l-106.667-85.333c-3.925-3.072-8.661-4.651-13.355-4.651zM384 85.333c-11.776 0-21.333 9.515-21.333 21.333v810.667c0 11.819 9.557 21.333 21.333 21.333s21.333-9.515 21.333-21.333v-810.667c0-11.819-9.557-21.333-21.333-21.333zM682.667 85.333c-4.651 0-9.429 1.579-13.355 4.651l-106.667 85.333c-9.173 7.424-10.667 20.736-3.328 30.080 7.339 9.173 20.736 10.667 29.995 3.243l93.355-74.667 93.355 74.667c9.344 7.339 22.613 5.845 29.995-3.328 7.339-9.259 5.845-22.613-3.328-29.995l-106.667-85.333c-3.925-3.072-8.704-4.651-13.355-4.651zM682.667 85.333c-11.733 0-21.333 9.515-21.333 21.333v810.667c0 11.819 9.6 21.333 21.333 21.333s21.333-9.515 21.333-21.333v-810.667c0-11.819-9.6-21.333-21.333-21.333zM170.667-42.667c-11.776 0-21.333 9.515-21.333 21.333v512h-128c-11.776 0-21.333 9.557-21.333 21.333s9.557 21.333 21.333 21.333h149.333c11.776 0 21.333-9.557 21.333-21.333v-533.333c0-11.819-9.557-21.333-21.333-21.333zM896-42.667c-11.733 0-21.333 9.515-21.333 21.333v533.333c0 11.776 9.6 21.333 21.333 21.333h149.333c11.733 0 21.333-9.557 21.333-21.333s-9.6-21.333-21.333-21.333h-128v-512c0-11.819-9.6-21.333-21.333-21.333z" />
<glyph unicode="&#xe92a;" glyph-name="arrow-inside-gap-45" horiz-adv-x="1067" d="M682.667 384.683c-11.733 0-21.333 9.557-21.333 21.333v213.333c0 4.437 1.365 8.747 3.925 12.373l150.656 212.011c6.827 9.6 20.181 11.819 29.739 5.035 9.6-6.869 11.819-20.181 4.992-29.739l-146.688-206.464v-206.464c0.043-11.947-9.557-21.419-21.291-21.419zM384 384.683c-11.776 0-21.333 9.557-21.333 21.333v213.333c0 4.437 1.365 8.747 3.925 12.373l150.656 212.011c6.827 9.6 20.139 11.819 29.739 5.035 9.6-6.869 11.861-20.181 5.035-29.739l-146.731-206.464v-206.464c0.043-11.947-9.515-21.419-21.291-21.419zM128 43.349c-11.776 0-21.333 9.557-21.333 21.333v512h-85.333c-11.776 0-21.333 9.557-21.333 21.333s9.557 21.333 21.333 21.333h106.667c11.776 0 21.333-9.557 21.333-21.333v-533.333c0-11.861-9.557-21.333-21.333-21.333zM938.667 43.349c-11.733 0-21.333 9.557-21.333 21.333v533.333c0 11.776 9.6 21.333 21.333 21.333h106.667c11.733 0 21.333-9.557 21.333-21.333s-9.6-21.333-21.333-21.333h-85.333v-512c0-11.861-9.6-21.333-21.333-21.333zM384 381.397c-4.693 0-9.429 1.579-13.355 4.693l-106.667 85.333c-9.173 7.381-10.667 20.779-3.328 29.995s20.779 10.709 29.995 3.328l93.355-74.667 93.355 74.667c9.216 7.381 22.613 5.845 29.995-3.371 7.339-9.173 5.845-22.613-3.328-29.995l-106.667-85.333c-3.925-3.029-8.661-4.651-13.355-4.651zM682.667 381.397c-4.651 0-9.429 1.579-13.355 4.693l-106.667 85.333c-9.173 7.381-10.667 20.779-3.328 29.995 7.381 9.216 20.736 10.709 29.995 3.328l93.355-74.667 93.355 74.667c9.259 7.381 22.613 5.845 29.995-3.371 7.339-9.173 5.845-22.613-3.328-29.995l-106.667-85.333c-3.925-3.029-8.704-4.651-13.355-4.651z" />
<glyph unicode="&#xe92b;" glyph-name="arrow-into" d="M576 362.667c-4.651 0-9.429 1.579-13.355 4.651l-106.667 85.333c-9.259 7.381-10.667 20.779-3.328 29.995 7.424 9.216 20.821 10.667 29.995 3.328l93.355-74.667 93.355 74.667c9.387 7.381 22.656 5.888 29.995-3.328s5.931-22.613-3.328-29.995l-106.667-85.333c-3.925-3.072-8.704-4.651-13.355-4.651zM576 362.667c-11.733 0-21.333 9.515-21.333 21.333v64c0 51.541-22.4 106.667-85.333 106.667h-426.667c-11.733 0-21.333 9.557-21.333 21.333s9.6 21.333 21.333 21.333h426.667c76.544 0 128-60.032 128-149.333v-64c0-11.819-9.6-21.333-21.333-21.333zM981.333 298.667h-938.667c-11.733 0-21.333 9.6-21.333 21.333s9.6 21.333 21.333 21.333h938.667c11.733 0 21.333-9.6 21.333-21.333s-9.6-21.333-21.333-21.333z" />
<glyph unicode="&#xe92c;" glyph-name="arrow-join" d="M586.667 469.333h384v-42.667h-384v42.667zM908.373 314.325c-4.437 0-8.917 1.365-12.757 4.181-9.472 7.083-11.477 20.437-4.395 29.909l74.069 99.584-74.027 99.584c-7.083 9.472-5.077 22.827 4.395 29.867 9.387 6.955 22.699 5.077 29.867-4.395l83.584-112.341c5.632-7.595 5.632-17.877 0-25.472l-83.584-112.299c-4.224-5.632-10.709-8.619-17.152-8.619zM595.584 419.883c-11.733 0-21.333 9.557-21.333 21.333 0 54.827-22.101 113.451-84.096 113.451h-458.155c-11.733 0-21.333 9.557-21.333 21.333s9.6 21.333 21.333 21.333h458.155c75.819 0 126.763-62.763 126.763-156.117 0-11.819-9.6-21.333-21.333-21.333zM490.155 298.667h-458.155c-11.733 0-21.333 9.6-21.333 21.333s9.6 21.333 21.333 21.333h458.155c61.995 0 84.096 58.624 84.096 113.451 0 11.776 9.6 21.333 21.333 21.333s21.333-9.557 21.333-21.333c0-93.355-50.901-156.117-126.763-156.117z" />
<glyph unicode="&#xe92d;" glyph-name="arrow-junction" d="M725.333 640c-4.651 0-9.429 1.536-13.355 4.651-9.259 7.381-10.667 20.779-3.328 29.995l74.667 93.355-74.667 93.312c-7.339 9.173-5.931 22.613 3.328 29.995s22.571 5.888 29.995-3.328l85.333-106.667c6.229-7.808 6.229-18.859 0-26.667l-85.333-106.667c-4.181-5.248-10.411-7.979-16.64-7.979zM810.667 746.667h-469.333c-11.733 0-21.333 9.557-21.333 21.333s9.6 21.333 21.333 21.333h469.333c11.733 0 21.333-9.557 21.333-21.333s-9.6-21.333-21.333-21.333zM298.667 384c-6.229 0-12.459 2.731-16.683 8.021l-85.333 106.667c-6.229 7.808-6.229 18.859 0 26.667l85.333 106.667c7.424 9.216 20.821 10.667 29.995 3.328 9.173-7.381 10.667-20.821 3.328-29.995l-74.624-93.355 74.667-93.355c7.339-9.259 5.845-22.613-3.328-29.995-3.925-3.115-8.704-4.651-13.355-4.651zM682.667 490.667h-469.333c-11.733 0-21.333 9.557-21.333 21.333s9.6 21.333 21.333 21.333h469.333c11.733 0 21.333-9.557 21.333-21.333s-9.6-21.333-21.333-21.333zM533.333-42.667c-11.733 0-21.333 9.515-21.333 21.333v938.667c0 11.819 9.6 21.333 21.333 21.333s21.333-9.515 21.333-21.333v-938.667c0-11.819-9.6-21.333-21.333-21.333z" />
<glyph unicode="&#xe92e;" glyph-name="arrow-left" d="M640-42.667c-7.552 0-14.891 4.011-18.688 11.136l-256 469.333c-3.499 6.315-3.499 14.080 0 20.437l256 469.333c5.632 10.325 18.688 14.165 28.928 8.533 10.368-5.675 14.165-18.603 8.533-28.928l-250.496-459.179 250.453-459.136c5.632-10.368 1.835-23.296-8.533-28.971-3.2-1.707-6.699-2.56-10.197-2.56z" />
<glyph unicode="&#xe92f;" glyph-name="arrow-left-2" d="M554.667-42.667c-7.552 0-14.891 4.011-18.688 11.136l-256 469.333c-3.499 6.315-3.499 14.080 0 20.437l256 469.333c5.675 10.325 18.645 14.165 28.928 8.533 10.368-5.675 14.165-18.603 8.533-28.928l-250.496-459.179 250.453-459.136c5.632-10.368 1.835-23.296-8.533-28.971-3.2-1.707-6.699-2.56-10.197-2.56zM725.333-42.667c-7.552 0-14.891 4.011-18.688 11.136l-256 469.333c-3.499 6.315-3.499 14.080 0 20.437l256 469.333c5.632 10.325 18.645 14.165 28.928 8.533 10.368-5.675 14.165-18.603 8.533-28.928l-250.496-459.179 250.453-459.136c5.632-10.368 1.835-23.296-8.533-28.971-3.2-1.707-6.699-2.56-10.197-2.56z" />
<glyph unicode="&#xe930;" glyph-name="arrow-left-in-circle" d="M576 128c-7.424 0-14.592 3.84-18.603 10.752l-170.667 298.667c-3.755 6.528-3.755 14.592 0 21.205l170.667 298.667c5.888 10.197 18.859 13.739 29.141 7.936 10.197-5.888 13.781-18.859 7.979-29.099l-164.608-288.085 164.608-288.043c5.845-10.283 2.261-23.253-7.979-29.184-3.285-1.92-6.955-2.816-10.539-2.816zM512 917.333c258.731 0 469.333-210.56 469.333-469.333 0-258.816-210.603-469.333-469.333-469.333-258.773 0-469.333 210.517-469.333 469.333 0 258.773 210.56 469.333 469.333 469.333zM512 960c-282.752 0-512-229.248-512-512 0-282.709 229.248-512 512-512s512 229.291 512 512c0 282.752-229.248 512-512 512v0z" />
<glyph unicode="&#xe931;" glyph-name="arrow-loop" d="M682.667 682.667c-4.651 0-9.387 1.536-13.355 4.651-9.173 7.381-10.667 20.779-3.328 29.995l74.667 93.355-74.667 93.312c-7.339 9.173-5.845 22.613 3.328 29.995 9.259 7.381 22.613 5.845 29.995-3.328l85.333-106.667c6.229-7.808 6.229-18.859 0-26.667l-85.333-106.667c-4.181-5.248-10.411-7.979-16.64-7.979zM341.333-42.667c-6.272 0-12.459 2.731-16.683 8.021l-85.333 106.667c-6.229 7.808-6.229 18.816 0 26.667l85.333 106.667c7.424 9.088 20.779 10.667 29.995 3.328 9.173-7.424 10.667-20.821 3.328-29.995l-74.667-93.355 74.667-93.355c7.339-9.259 5.845-22.613-3.328-29.995-3.925-3.115-8.619-4.651-13.312-4.651zM1002.667 64h-746.667c-11.776 0-21.333 9.6-21.333 21.333s9.557 21.333 21.333 21.333h725.333v682.667h-128c-11.733 0-21.333 9.557-21.333 21.333s9.6 21.333 21.333 21.333h149.333c11.733 0 21.333-9.557 21.333-21.333v-725.333c0-11.733-9.6-21.333-21.333-21.333zM170.667 64h-149.333c-11.776 0-21.333 9.6-21.333 21.333v725.333c0 11.776 9.557 21.333 21.333 21.333h746.667c11.733 0 21.333-9.557 21.333-21.333s-9.6-21.333-21.333-21.333h-725.333v-682.667h128c11.776 0 21.333-9.6 21.333-21.333s-9.557-21.333-21.333-21.333z" />
<glyph unicode="&#xe932;" glyph-name="arrow-merge" d="M981.333 426.667h-384c-11.776 0-21.333 9.557-21.333 21.333s9.557 21.333 21.333 21.333h384c11.733 0 21.333-9.557 21.333-21.333s-9.6-21.333-21.333-21.333zM896 320c-4.651 0-9.387 1.536-13.355 4.651-9.173 7.339-10.667 20.736-3.328 29.995l74.667 93.355-74.667 93.312c-7.339 9.173-5.845 22.613 3.328 29.995 9.216 7.381 22.656 5.888 29.995-3.328l85.333-106.667c6.229-7.808 6.229-18.859 0-26.667l-85.333-106.667c-4.181-5.248-10.411-7.979-16.64-7.979zM341.333 448c-4.651 0-9.387 1.536-13.355 4.651-9.173 7.381-10.667 20.779-3.328 29.995l74.667 93.355-74.667 93.312c-7.296 9.173-5.803 22.613 3.371 29.995 9.216 7.381 22.613 5.888 29.995-3.328l85.333-106.667c6.229-7.808 6.229-18.859 0-26.667l-85.333-106.667c-4.224-5.248-10.453-7.979-16.683-7.979zM170.667 192c-4.651 0-9.387 1.536-13.355 4.651-9.173 7.339-10.667 20.736-3.328 29.995l74.667 93.355-74.667 93.355c-7.339 9.173-5.845 22.571 3.328 29.995 9.216 7.381 22.613 5.888 29.995-3.328l85.333-106.667c6.229-7.851 6.229-18.859 0-26.667l-85.333-106.667c-4.181-5.291-10.411-8.021-16.64-8.021zM597.333 426.667c-11.776 0-21.333 9.557-21.333 21.333 0 58.795-47.872 106.667-106.667 106.667h-426.667c-11.776 0-21.333 9.557-21.333 21.333s9.557 21.333 21.333 21.333h426.667c82.347 0 149.333-67.029 149.333-149.333 0-11.776-9.6-21.333-21.333-21.333zM469.333 298.667h-426.667c-11.776 0-21.333 9.6-21.333 21.333s9.557 21.333 21.333 21.333h426.667c58.795 0 106.667 47.872 106.667 106.667 0 11.776 9.557 21.333 21.333 21.333 11.733 0 21.333-9.557 21.333-21.333 0-82.347-66.987-149.333-149.333-149.333z" />
<glyph unicode="&#xe933;" glyph-name="arrow-mix" d="M896 554.667c-4.651 0-9.387 1.536-13.355 4.651-9.173 7.381-10.667 20.779-3.328 29.995l74.667 93.355-74.667 93.312c-7.339 9.173-5.845 22.613 3.328 29.995 9.259 7.381 22.613 5.845 29.995-3.328l85.333-106.667c6.229-7.808 6.229-18.859 0-26.667l-85.333-106.667c-4.181-5.248-10.411-7.979-16.64-7.979zM128 85.333c-6.272 0-12.459 2.731-16.683 8.021l-85.333 106.667c-6.229 7.808-6.229 18.816 0 26.667l85.333 106.667c7.381 9.088 20.779 10.667 29.995 3.328 9.173-7.424 10.667-20.821 3.328-29.995l-74.667-93.355 74.667-93.355c7.339-9.259 5.845-22.613-3.328-29.995-3.925-3.115-8.619-4.651-13.312-4.651zM129.323 192h-86.656c-11.776 0-21.333 9.6-21.333 21.333s9.557 21.333 21.333 21.333h86.656c160.384 0 258.347 110.464 362.027 227.456 105.387 118.912 214.357 241.877 393.941 241.877h96c11.776 0 21.333-9.557 21.333-21.333s-9.557-21.333-21.333-21.333h-96c-160.384 0-258.389-110.507-362.027-227.499-105.344-118.912-214.315-241.835-393.941-241.835zM128 554.667c-6.272 0-12.459 2.731-16.683 7.979l-85.333 106.667c-6.229 7.808-6.229 18.859 0 26.667l85.333 106.667c7.381 9.131 20.779 10.667 29.995 3.328 9.173-7.381 10.667-20.821 3.328-29.995l-74.667-93.312 74.667-93.355c7.339-9.216 5.845-22.613-3.328-29.995-3.925-3.115-8.619-4.651-13.312-4.651zM896 85.333c-4.651 0-9.387 1.536-13.355 4.651-9.173 7.339-10.667 20.736-3.328 29.995l74.667 93.355-74.667 93.355c-7.339 9.173-5.845 22.571 3.328 29.995 9.259 7.339 22.613 5.888 29.995-3.328l85.333-106.667c6.229-7.851 6.229-18.859 0-26.667l-85.333-106.667c-4.181-5.291-10.411-8.021-16.64-8.021zM981.333 192h-86.656c-179.413 0-291.072 122.837-399.104 241.664-106.453 117.077-206.976 227.669-367.531 227.669h-85.333c-11.776 0-21.333 9.557-21.333 21.333s9.557 21.333 21.333 21.333h85.333c179.456 0 291.115-122.837 399.104-241.664 106.453-117.077 206.976-227.669 367.531-227.669h86.656c11.733 0 21.333-9.6 21.333-21.333s-9.6-21.333-21.333-21.333z" />
<glyph unicode="&#xe934;" glyph-name="arrow-next" d="M405.333-42.667c-2.389 0-4.821 0.384-7.168 1.237-8.491 2.987-14.165 11.008-14.165 20.096v938.667c0 9.003 5.675 17.067 14.165 20.053 8.363 3.072 17.92 0.427 23.68-6.571l384-469.333c6.4-7.893 6.4-19.157 0-27.008l-384-469.333c-4.139-5.077-10.24-7.808-16.512-7.808zM426.667 857.557v-819.157l335.104 409.6-335.104 409.557zM234.667-42.667c-11.733 0-21.333 9.515-21.333 21.333v938.667c0 11.819 9.6 21.333 21.333 21.333 11.776 0 21.333-9.515 21.333-21.333v-938.667c0-11.819-9.557-21.333-21.333-21.333z" />
<glyph unicode="&#xe935;" glyph-name="arrow-out-left" d="M117.504 320c-6.272 0-12.459 2.731-16.683 8.021l-85.291 106.667c-6.229 7.808-6.229 18.859 0 26.667l85.291 106.667c7.339 9.131 20.779 10.667 29.995 3.328 9.173-7.339 10.667-20.821 3.328-29.995l-74.624-93.355 74.667-93.355c7.339-9.216 5.845-22.656-3.328-29.995-3.925-3.072-8.619-4.651-13.355-4.651zM991.744 426.667h-938.667c-11.776 0-21.333 9.557-21.333 21.333s9.557 21.333 21.333 21.333h938.667c11.733 0 21.333-9.557 21.333-21.333s-9.557-21.333-21.333-21.333z" />
<glyph unicode="&#xe936;" glyph-name="arrow-out-right" d="M906.496 320c-4.651 0-9.429 1.536-13.355 4.651-9.216 7.339-10.667 20.736-3.285 29.995l74.581 93.355-74.581 93.312c-7.381 9.173-5.931 22.656 3.285 29.995 9.301 7.381 22.656 5.888 29.995-3.328l85.291-106.667c6.229-7.808 6.229-18.859 0-26.667l-85.291-106.667c-4.181-5.248-10.368-7.979-16.64-7.979zM970.923 426.667h-938.667c-11.733 0-21.333 9.557-21.333 21.333s9.6 21.333 21.333 21.333h938.667c11.733 0 21.333-9.557 21.333-21.333s-9.6-21.333-21.333-21.333z" />
<glyph unicode="&#xe937;" glyph-name="arrow-outside" d="M117.333 469.333c-6.229 0-12.459 2.731-16.683 7.979l-85.333 106.667c-6.229 7.808-6.229 18.859 0 26.667l85.333 106.667c7.381 9.216 20.736 10.667 29.995 3.328 9.173-7.381 10.667-20.821 3.328-29.995l-74.624-93.312 74.667-93.355c7.339-9.216 5.845-22.613-3.328-29.995-3.925-3.115-8.704-4.651-13.355-4.651zM992 21.333h-768c-11.733 0-21.333 9.6-21.333 21.333v810.667c0 11.776 9.6 21.333 21.333 21.333h768c11.733 0 21.333-9.557 21.333-21.333v-810.667c0-11.733-9.6-21.333-21.333-21.333zM245.333 64h725.333v768h-725.333v-768zM672 576h-640c-11.733 0-21.333 9.557-21.333 21.333s9.6 21.333 21.333 21.333h640c11.733 0 21.333-9.557 21.333-21.333s-9.6-21.333-21.333-21.333zM117.333 170.667c-6.229 0-12.459 2.731-16.683 8.021l-85.333 106.667c-6.229 7.808-6.229 18.816 0 26.667l85.333 106.667c7.381 9.173 20.736 10.667 29.995 3.328 9.173-7.424 10.667-20.821 3.328-29.995l-74.624-93.355 74.667-93.355c7.339-9.259 5.845-22.613-3.328-29.995-3.925-3.115-8.704-4.651-13.355-4.651zM672 277.333h-640c-11.733 0-21.333 9.6-21.333 21.333s9.6 21.333 21.333 21.333h640c11.733 0 21.333-9.6 21.333-21.333s-9.6-21.333-21.333-21.333z" />
<glyph unicode="&#xe938;" glyph-name="arrow-outside-45" d="M981.333 21.333h-597.333c-11.776 0-21.333 9.6-21.333 21.333v810.667c0 11.776 9.557 21.333 21.333 21.333h597.333c11.733 0 21.333-9.557 21.333-21.333v-810.667c0-11.733-9.6-21.333-21.333-21.333zM405.333 64h554.667v768h-554.667v-768zM149.333 277.333h-106.667c-11.776 0-21.333 9.6-21.333 21.333v106.667c0 11.819 9.557 21.333 21.333 21.333s21.333-9.515 21.333-21.333v-85.333h85.333c11.776 0 21.333-9.6 21.333-21.333s-9.557-21.333-21.333-21.333zM57.301 302.293c-5.461 0-10.923 2.091-15.104 6.229-8.32 8.32-8.32 21.888 0 30.251l434.859 434.773c8.32 8.32 21.845 8.32 30.165 0 8.32-8.363 8.32-21.845 0-30.165l-434.859-434.901c-4.139-4.096-9.6-6.187-15.061-6.187zM277.333 64h-106.667c-11.776 0-21.333 9.6-21.333 21.333v106.667c0 11.819 9.557 21.333 21.333 21.333s21.333-9.515 21.333-21.333v-85.333h85.333c11.776 0 21.333-9.6 21.333-21.333s-9.557-21.333-21.333-21.333zM185.301 88.96c-5.461 0-10.923 2.091-15.104 6.229-8.32 8.32-8.32 21.888 0 30.251l434.901 434.773c8.277 8.32 21.845 8.32 30.123 0 8.32-8.363 8.32-21.845 0-30.165l-434.859-434.901c-4.139-4.096-9.6-6.187-15.061-6.187z" />
<glyph unicode="&#xe939;" glyph-name="arrow-outside-gap" d="M256 809.045c-6.272 0-12.459 2.731-16.683 7.979-7.381 9.173-5.888 22.656 3.328 30.037l106.667 85.376c7.808 6.229 18.859 6.229 26.667 0l106.667-85.333c9.173-7.381 10.667-20.779 3.328-29.995-7.381-9.173-20.736-10.709-29.995-3.371l-93.355 74.667-93.355-74.709c-3.883-3.115-8.576-4.651-13.269-4.651zM362.667 86.912c-11.776 0-21.333 9.515-21.333 21.333v768c0 11.819 9.557 21.333 21.333 21.333s21.333-9.557 21.333-21.333v-768c0-11.819-9.557-21.333-21.333-21.333zM554.667 809.045c-6.229 0-12.459 2.731-16.683 7.979-7.381 9.173-5.888 22.656 3.328 29.995l106.667 85.376c7.808 6.272 18.859 6.272 26.709 0.043l106.667-85.333c9.173-7.381 10.667-20.779 3.328-29.995-7.381-9.173-20.736-10.709-29.995-3.371l-93.355 74.667-93.355-74.709c-3.883-3.115-8.661-4.651-13.312-4.651zM661.333 86.912c-11.733 0-21.333 9.515-21.333 21.333v768c0 11.819 9.6 21.333 21.333 21.333s21.333-9.515 21.333-21.333v-768c0-11.819-9.6-21.333-21.333-21.333zM277.333-41.088c-11.776 0-21.333 9.515-21.333 21.333v512h-213.333c-11.776 0-21.333 9.557-21.333 21.333s9.557 21.333 21.333 21.333h234.667c11.776 0 21.333-9.557 21.333-21.333v-533.333c0-11.819-9.557-21.333-21.333-21.333zM746.667-41.088c-11.733 0-21.333 9.515-21.333 21.333v533.333c0 11.776 9.6 21.333 21.333 21.333h234.667c11.733 0 21.333-9.557 21.333-21.333s-9.6-21.333-21.333-21.333h-213.333v-512c0-11.819-9.6-21.333-21.333-21.333z" />
<glyph unicode="&#xe93a;" glyph-name="arrow-outside-gap-45" d="M618.667 736c-11.733 0-21.333 9.515-21.333 21.333v85.333h-85.333c-11.776 0-21.333 9.557-21.333 21.333s9.557 21.333 21.333 21.333h106.667c11.733 0 21.333-9.557 21.333-21.333v-106.667c0-11.819-9.6-21.333-21.333-21.333zM832 736c-11.733 0-21.333 9.515-21.333 21.333v85.333h-85.333c-11.733 0-21.333 9.557-21.333 21.333s9.6 21.333 21.333 21.333h106.667c11.733 0 21.333-9.557 21.333-21.333v-106.667c0-11.819-9.6-21.333-21.333-21.333zM618.667 138.667c-11.733 0-21.333 9.515-21.333 21.333v426.667c0 4.651 1.536 9.131 4.352 12.885l193.323 254.677c7.125 9.387 20.523 11.136 29.909 4.096 9.429-7.125 11.264-20.523 4.096-29.909l-189.013-248.96v-419.456c0-11.819-9.6-21.333-21.333-21.333zM405.333 138.667c-11.776 0-21.333 9.515-21.333 21.333v426.667c0 4.651 1.536 9.131 4.352 12.885l193.323 254.677c7.168 9.387 20.523 11.136 29.909 4.096 9.429-7.125 11.264-20.523 4.096-29.909l-189.013-248.96v-419.456c0-11.819-9.557-21.333-21.333-21.333zM277.333 10.667c-11.776 0-21.333 9.515-21.333 21.333v512h-213.333c-11.776 0-21.333 9.557-21.333 21.333s9.557 21.333 21.333 21.333h234.667c11.776 0 21.333-9.557 21.333-21.333v-533.333c0-11.819-9.557-21.333-21.333-21.333zM746.667 10.667c-11.733 0-21.333 9.515-21.333 21.333v533.333c0 11.776 9.6 21.333 21.333 21.333h234.667c11.733 0 21.333-9.557 21.333-21.333s-9.6-21.333-21.333-21.333h-213.333v-512c0-11.819-9.6-21.333-21.333-21.333z" />
<glyph unicode="&#xe93b;" glyph-name="arrow-over" d="M896 298.667c-4.651 0-9.429 1.536-13.355 4.651-9.173 7.339-10.667 20.736-3.328 29.995l74.667 93.355-74.667 93.312c-7.339 9.173-5.845 22.613 3.328 29.995 9.216 7.381 22.656 5.888 29.995-3.328l85.333-106.667c6.229-7.808 6.229-18.859 0-26.667l-85.333-106.667c-4.181-5.248-10.411-7.979-16.64-7.979zM491.989 341.333c-46.336 0-84.053 37.632-84.053 84.011 0 46.293 37.675 84.053 84.053 84.053 46.336 0 84.011-37.675 84.011-84.053s-37.675-84.011-84.011-84.011zM491.989 466.688c-22.784 0-41.387-18.56-41.387-41.344 0-22.827 18.603-41.344 41.387-41.344 22.741 0 41.344 18.517 41.344 41.344 0 22.784-18.603 41.344-41.344 41.344zM981.333 405.333h-362.667c-11.776 0-21.333 9.6-21.333 21.333v21.333c0 58.795-47.872 106.667-106.667 106.667s-106.667-47.872-106.667-106.667v-21.333c0-11.733-9.6-21.333-21.333-21.333h-320c-11.776 0-21.333 9.6-21.333 21.333 0 11.776 9.557 21.333 21.333 21.333h298.667c0 82.304 66.944 149.333 149.333 149.333 82.347 0 149.333-67.029 149.333-149.333h341.333c11.733 0 21.333-9.557 21.333-21.333 0-11.733-9.6-21.333-21.333-21.333z" />
<glyph unicode="&#xe93c;" glyph-name="arrow-refresh" d="M511.104 39.125c-11.733 0-21.333 9.557-21.333 21.333 0 11.691 9.6 21.333 21.333 21.333 198.656 0 360.235 164.309 360.235 366.208 0 11.819 9.6 21.333 21.333 21.333 11.819 0 21.333-9.515 21.333-21.333 0-225.451-180.651-408.875-402.901-408.875zM129.536 426.667c-11.819 0-21.333 9.515-21.333 21.333 0 225.451 180.693 408.875 402.901 408.875 11.733 0 21.333-9.6 21.333-21.333 0-11.776-9.6-21.333-21.333-21.333-198.656 0-360.235-164.309-360.235-366.208 0-11.819-9.6-21.333-21.333-21.333zM511.104 320c-70.571 0-128 57.429-128 128s57.429 128 128 128c70.571 0 128-57.429 128-128s-57.429-128-128-128zM511.104 533.333c-47.104 0-85.333-38.315-85.333-85.333 0-47.104 38.229-85.333 85.333-85.333 47.061 0 85.333 38.229 85.333 85.333 0 47.019-38.272 85.333-85.333 85.333zM996.267 361.515c-4.011 0-7.936 1.067-11.435 3.328l-94.336 59.392-103.68-41.088c-10.923-4.395-23.339 1.024-27.648 11.947-4.437 10.923 0.896 23.339 11.904 27.648l113.664 45.099c6.229 2.475 13.397 1.835 19.243-1.792l103.595-65.152c9.899-6.229 12.928-19.456 6.571-29.397-3.883-6.485-10.795-9.984-17.877-9.984zM129.536 426.667c-4.224 0-8.32 1.237-11.904 3.584l-101.675 67.968c-9.771 6.571-12.416 19.797-5.888 29.611 6.571 9.771 19.797 12.416 29.611 5.888l92.629-61.952 104.704 38.272c11.136 4.053 23.339-1.707 27.392-12.757 4.053-11.008-1.621-23.339-12.715-27.349l-114.816-41.984c-2.432-0.896-4.949-1.28-7.339-1.28z" />
<glyph unicode="&#xe93d;" glyph-name="arrow-refresh-2" d="M511.957 341.291c-55.125 0-100.693 41.387-106.027 96.299-2.688 28.331 5.76 56.064 23.851 78.123 18.176 22.059 43.648 35.627 72.021 38.4 59.307 5.76 110.805-37.461 116.48-95.872 2.688-28.373-5.76-56.064-23.851-78.080-18.176-22.059-43.648-35.669-72.064-38.357-3.456-0.341-6.955-0.512-10.411-0.512zM512.213 511.957c-2.133 0-4.267-0.085-6.315-0.299-16.939-1.664-32.341-9.813-43.264-23.040-10.88-13.227-15.915-29.824-14.251-46.848 3.371-35.072 34.688-61.013 69.845-57.515 17.024 1.664 32.427 9.813 43.349 23.040 10.837 13.227 15.915 29.824 14.251 46.848-3.243 32.939-30.592 57.813-63.616 57.813zM978.261 418.517c-3.413 0-6.912 0.853-10.069 2.603l-74.581 40.235-76.928-35.541c-10.752-4.907-23.424-0.256-28.331 10.453s-0.341 23.424 10.325 28.373l86.656 39.979c6.187 2.816 13.184 2.603 19.072-0.597l83.925-45.312c10.411-5.589 14.251-18.56 8.661-28.928-3.84-7.211-11.179-11.264-18.731-11.264zM129.835 389.419c-3.456 0-6.955 0.853-10.027 2.603l-84.139 45.099c-10.368 5.589-14.293 18.517-8.704 28.885 5.547 10.411 18.517 14.251 28.928 8.747l74.667-40.064 76.843 35.712c10.667 4.949 23.424 0.341 28.331-10.325 4.992-10.667 0.427-23.339-10.24-28.331l-86.528-40.235c-2.987-1.408-6.059-2.091-9.131-2.091zM511.573 42.624c-209.365 0-382.677 157.355-402.944 366.080-21.589 222.464 141.781 421.035 364.203 442.709 225.92 22.016 421.12-142.421 442.667-364.245 21.589-222.464-141.739-421.035-364.245-442.667-13.269-1.237-26.539-1.877-39.68-1.877zM512.555 810.667c-11.733 0-23.68-0.597-35.584-1.749-198.997-19.371-345.216-197.077-325.845-396.16 19.285-198.4 194.133-345.429 396.075-325.845 198.997 19.413 345.173 196.992 325.845 396.075-18.219 186.837-173.227 327.68-360.491 327.68z" />
<glyph unicode="&#xe93e;" glyph-name="arrow-right" d="M384-42.709c-3.456 0-6.955 0.896-10.197 2.645-10.368 5.675-14.165 18.603-8.533 28.971l250.453 459.093-250.453 459.179c-5.632 10.325-1.835 23.253 8.533 28.928 10.283 5.632 23.296 1.792 28.928-8.533l256-469.333c3.499-6.357 3.499-14.123 0-20.437l-256-469.333c-3.883-7.125-11.179-11.179-18.731-11.179z" />
<glyph unicode="&#xe93f;" glyph-name="arrow-right-2" d="M469.333-42.709c-3.456 0-6.955 0.896-10.197 2.645-10.368 5.675-14.165 18.603-8.533 28.971l250.453 459.093-250.453 459.136c-5.632 10.325-1.835 23.253 8.533 28.928 10.283 5.632 23.296 1.792 28.928-8.533l256-469.333c3.499-6.357 3.499-14.123 0-20.437l-256-469.333c-3.883-7.083-11.179-11.136-18.731-11.136zM298.667-42.709c-3.456 0-6.955 0.896-10.197 2.645-10.368 5.675-14.165 18.603-8.533 28.971l250.453 459.093-250.453 459.093c-5.632 10.325-1.835 23.253 8.533 28.928 10.283 5.632 23.296 1.792 28.928-8.533l256-469.333c3.499-6.357 3.499-14.123 0-20.437l-256-469.333c-3.883-7.040-11.179-11.093-18.731-11.093z" />
<glyph unicode="&#xe940;" glyph-name="arrow-right-in-circle" d="M448 128c-3.584 0-7.211 0.896-10.581 2.731-10.24 5.931-13.781 18.859-7.936 29.184l164.608 288.043-164.608 288.085c-5.845 10.24-2.304 23.211 7.936 29.099 10.155 5.845 23.253 2.304 29.099-7.936l170.667-298.667c3.755-6.571 3.755-14.635 0-21.205l-170.667-298.667c-3.925-6.827-11.136-10.667-18.517-10.667zM512 917.333c258.731 0 469.333-210.56 469.333-469.333 0-258.816-210.603-469.333-469.333-469.333-258.773 0-469.333 210.517-469.333 469.333 0 258.773 210.56 469.333 469.333 469.333zM512 960c-282.752 0-512-229.248-512-512 0-282.709 229.248-512 512-512s512 229.291 512 512c0 282.752-229.248 512-512 512v0z" />
<glyph unicode="&#xe941;" glyph-name="arrow-shuffle" d="M895.957 554.667c-4.608 0-9.387 1.536-13.312 4.651-9.173 7.381-10.667 20.779-3.328 29.995l74.667 93.355-74.667 93.312c-7.339 9.173-5.845 22.613 3.328 29.995s22.571 5.845 29.995-3.328l85.333-106.667c6.229-7.808 6.229-18.859 0-26.667l-85.333-106.667c-4.224-5.248-10.453-7.979-16.683-7.979zM560.683 508.629c-5.077 0-10.24 1.792-14.251 5.504-8.747 7.936-9.472 21.376-1.493 30.165 87.723 97.024 225.579 159.701 351.061 159.701h85.333c11.733 0 21.333-9.557 21.333-21.333s-9.6-21.333-21.333-21.333h-85.333c-114.005 0-239.403-57.173-319.488-145.707-4.224-4.608-10.027-6.997-15.829-6.997zM43.947 192c-11.776 0-21.333 9.6-21.333 21.333s9.557 21.333 21.333 21.333c125.056 0 291.328 67.157 363.093 146.688 7.893 8.832 21.376 9.472 30.123 1.579 8.747-7.936 9.429-21.333 1.536-30.165-79.957-88.704-257.067-160.768-394.752-160.768zM895.957 85.333c-4.608 0-9.387 1.536-13.312 4.651-9.173 7.339-10.667 20.736-3.328 29.995l74.667 93.355-74.667 93.355c-7.339 9.173-5.845 22.571 3.328 29.995 9.173 7.339 22.571 5.888 29.995-3.328l85.333-106.667c6.229-7.851 6.229-18.859 0-26.667l-85.333-106.667c-4.224-5.291-10.453-8.021-16.683-8.021zM981.291 192h-86.656c-178.304 0-311.552 122.069-440.405 240.256-128.512 117.803-249.856 229.077-411.563 229.077-11.776 0-21.333 9.557-21.333 21.333s9.557 21.333 21.333 21.333c178.304 0 311.552-122.155 440.405-240.256 128.512-117.845 249.856-229.077 411.563-229.077h86.656c11.776 0 21.333-9.6 21.333-21.333s-9.557-21.333-21.333-21.333z" />
<glyph unicode="&#xe942;" glyph-name="arrow-squiggly" d="M897.237 100.48c-4.651 0-9.429 1.536-13.355 4.651-9.173 7.339-10.667 20.736-3.328 29.995l74.667 93.355-74.667 93.355c-7.339 9.173-5.845 22.571 3.328 29.995 9.216 7.339 22.656 5.888 29.995-3.328l85.333-106.667c6.229-7.851 6.229-18.859 0-26.667l-85.333-106.667c-4.181-5.248-10.411-8.021-16.64-8.021zM234.197-29.269c-4.437 0-8.832 1.365-12.587 4.181-78.165 57.472-198.4 252.16-201.515 414.848-1.451 78.421 25.003 141.611 76.587 182.613 60.16 47.744 133.717 51.712 191.957 10.368 57.557-40.875 107.947-136.576 60.8-271.915-35.328-101.248-18.389-189.355 46.549-241.835 52.139-42.069 126.592-50.347 176.896-19.584 50.816 31.019 82.347 87.509 86.357 155.221 5.803 96.64-45.611 197.675-137.557 270.208-105.557 83.243-199.893 179.115-176.341 315.563 13.483 78.123 83.029 132.267 173.141 134.741 93.909 2.688 219.477-56.405 259.712-231.424 22.229-96.853 33.493-182.997 42.453-252.16 16.853-129.493 26.88-191.744 71.296-191.744h90.667c11.733 0 21.333-9.557 21.333-21.333 0-11.733-9.6-21.333-21.333-21.333h-90.667c-83.883 0-95.701 91.008-113.621 228.864-8.875 68.309-19.925 153.259-41.771 248.107-34.475 149.888-139.947 200.491-216.96 198.315-69.163-1.877-122.24-41.771-132.224-99.328-19.755-114.475 65.579-199.68 160.683-274.773 104.448-82.432 160.555-194.091 153.771-306.304-4.949-81.792-43.819-150.699-106.752-189.056-66.219-40.491-159.147-31.104-225.92 22.827-37.76 30.421-119.125 119.595-60.032 288.939 39.381 113.024 0.299 190.805-45.227 223.104-42.837 30.421-95.403 27.051-140.715-8.96-41.344-32.896-61.653-82.731-60.459-148.395 2.731-144.768 111.872-328.149 184.064-381.269 9.515-6.912 11.563-20.309 4.523-29.824-4.053-5.632-10.496-8.661-17.109-8.661z" />
<glyph unicode="&#xe943;" glyph-name="arrow-through" d="M981.333 426.667h-256c-11.776 0-21.333 9.557-21.333 21.333s9.557 21.333 21.333 21.333h256c11.733 0 21.333-9.557 21.333-21.333s-9.6-21.333-21.333-21.333zM384 426.667h-341.333c-11.776 0-21.333 9.557-21.333 21.333s9.557 21.333 21.333 21.333h341.333c11.733 0 21.333-9.557 21.333-21.333s-9.6-21.333-21.333-21.333zM896 320c-4.651 0-9.429 1.536-13.355 4.651-9.173 7.339-10.667 20.736-3.328 29.995l74.667 93.355-74.667 93.312c-7.339 9.173-5.845 22.613 3.328 29.995 9.216 7.381 22.613 5.888 29.995-3.328l85.333-106.667c6.229-7.808 6.229-18.859 0-26.667l-85.333-106.667c-4.181-5.248-10.411-7.979-16.64-7.979zM458.667 186.667c-144.085 0-261.333 117.291-261.333 261.333 0 144.085 117.248 261.333 261.333 261.333s261.333-117.248 261.333-261.333c0-144.043-117.248-261.333-261.333-261.333zM458.667 666.667c-120.576 0-218.667-98.091-218.667-218.667s98.091-218.667 218.667-218.667 218.667 98.091 218.667 218.667-98.091 218.667-218.667 218.667z" />
<glyph unicode="&#xe944;" glyph-name="arrow-to" d="M977.323 322.944c-6.229 0-12.501 2.773-16.683 8.021-93.995 117.973-247.467 193.451-432 212.523-190.72 19.797-393.088-23.552-491.947-105.429-9.131-7.509-22.528-6.229-30.037 2.816-7.509 9.088-6.229 22.571 2.816 30.080 106.965 88.576 322.389 135.851 523.563 114.987 196.011-20.267 359.68-101.419 460.843-228.352 7.381-9.259 5.888-22.656-3.371-29.995-3.797-3.157-8.491-4.651-13.184-4.651zM1000.917 305.152h-106.667c-11.733 0-21.333 9.6-21.333 21.333s9.6 21.333 21.333 21.333h85.333v85.333c0 11.819 9.6 21.333 21.333 21.333s21.333-9.515 21.333-21.333v-106.667c0-11.733-9.6-21.333-21.333-21.333z" />
<glyph unicode="&#xe945;" glyph-name="arrow-turn-left" d="M613.333 349.824c-4.651 0-9.429 1.493-13.355 4.651l-341.333 273.109c-5.035 4.053-7.979 10.155-7.979 16.683s2.944 12.587 8.021 16.683l341.333 273.067c9.259 7.381 22.613 5.845 29.995-3.328 7.339-9.216 5.845-22.613-3.328-29.995l-320.512-256.427 320.512-256.384c9.173-7.381 10.667-20.779 3.328-29.995-4.224-5.291-10.453-8.064-16.683-8.064zM752-42.667c-11.733 0-21.333 9.515-21.333 21.333v460.757c0 101.163-82.347 183.424-183.509 183.424-11.776 0-21.333 9.557-21.333 21.333 0 11.819 9.557 21.333 21.333 21.333 124.715 0 226.176-101.419 226.176-226.091v-460.757c0-11.819-9.6-21.333-21.333-21.333z" />
<glyph unicode="&#xe946;" glyph-name="arrow-turn-right" d="M437.333 349.867c-6.272 0-12.459 2.688-16.683 8.021-7.339 9.173-5.845 22.571 3.328 29.995l320.512 256.384-320.512 256.427c-9.173 7.381-10.667 20.779-3.328 29.995 7.381 9.131 20.779 10.667 29.995 3.328l341.333-273.067c5.035-4.053 8.021-10.197 8.021-16.683s-2.901-12.629-8.021-16.64l-341.333-273.109c-3.925-3.2-8.619-4.651-13.312-4.651zM245.333-42.667c-11.776 0-21.333 9.515-21.333 21.333v460.8c0 124.672 101.461 226.091 226.176 226.091 11.776 0 21.333-9.515 21.333-21.333 0-11.776-9.557-21.333-21.333-21.333-101.205 0-183.509-82.304-183.509-183.424v-460.8c0-11.819-9.557-21.333-21.333-21.333z" />
<glyph unicode="&#xe947;" glyph-name="arrow-up" d="M981.333 298.667c-3.456 0-6.955 0.853-10.197 2.688l-459.136 250.325-459.136-250.453c-10.283-5.675-23.339-1.835-28.971 8.491s-1.835 23.253 8.533 28.971l469.333 256c6.315 3.499 14.080 3.499 20.437 0l469.333-256c10.325-5.675 14.165-18.645 8.491-28.971-3.84-7.040-11.136-11.051-18.688-11.051z" />
<glyph unicode="&#xe948;" glyph-name="arrow-up-2" d="M981.333 384c-3.499 0-6.997 0.853-10.24 2.688l-459.093 250.325-459.136-250.453c-10.283-5.675-23.296-1.835-28.928 8.491s-1.835 23.253 8.533 28.971l469.333 256c6.315 3.499 14.080 3.499 20.437 0l469.333-256c10.325-5.675 14.165-18.645 8.491-28.971-3.883-7.040-11.221-11.051-18.731-11.051zM981.333 213.333c-3.499 0-6.997 0.853-10.24 2.688l-459.093 250.325-459.136-250.453c-10.283-5.675-23.296-1.835-28.928 8.491s-1.835 23.253 8.533 28.971l469.333 256c6.315 3.499 14.080 3.499 20.437 0l469.333-256c10.325-5.675 14.165-18.645 8.491-28.971-3.883-7.040-11.221-11.051-18.731-11.051z" />
<glyph unicode="&#xe949;" glyph-name="arrow-up-3" d="M981.803 320c-0.256 0-0.597 0-0.896 0h-938.667c-9.003 0-17.024 5.675-20.096 14.208-3.029 8.491-0.384 17.877 6.571 23.637l469.333 384c7.851 6.443 19.115 6.443 27.008 0l466.133-381.355c7.040-3.499 11.861-10.752 11.861-19.115 0.085-11.776-9.515-21.376-21.248-21.376zM102.059 362.667h819.115l-409.6 335.104-409.515-335.104zM980.907 149.333h-938.667c-11.733 0-21.333 9.6-21.333 21.333s9.6 21.333 21.333 21.333h938.667c11.776 0 21.333-9.6 21.333-21.333s-9.515-21.333-21.333-21.333z" />
<glyph unicode="&#xe94a;" glyph-name="arrow-up-in-circle" d="M810.667 362.667c-3.627 0-7.253 0.896-10.581 2.731l-288.085 164.693-288.085-164.565c-10.155-5.76-23.253-2.347-29.184 7.979-5.888 10.197-2.261 23.211 8.021 29.141l298.667 170.667c6.571 3.755 14.592 3.755 21.163 0l298.667-170.667c10.24-5.931 13.739-18.859 8.021-29.141-4.011-6.997-11.221-10.837-18.603-10.837zM512 917.333c258.731 0 469.333-210.56 469.333-469.333 0-258.816-210.603-469.333-469.333-469.333s-469.333 210.517-469.333 469.333c0 258.773 210.603 469.333 469.333 469.333zM512 960c-282.752 0-512-229.248-512-512 0-282.709 229.248-512 512-512s512 229.291 512 512c0 282.752-229.248 512-512 512v0z" />
<glyph unicode="&#xe94b;" glyph-name="arrow-x-left" d="M659.499-64h-627.499c-11.733 0-21.333 9.6-21.333 21.333v981.333c0 11.776 9.6 21.333 21.333 21.333h627.499c7.083 0 13.653-3.499 17.664-9.387l332.501-490.667c4.821-7.211 4.821-16.683 0-23.893l-332.501-490.667c-4.011-5.888-10.581-9.387-17.664-9.387zM53.333-21.333h594.816l318.080 469.333-318.080 469.333h-594.816v-938.667zM558.763 252.075c-5.504 0-10.923 2.091-15.104 6.229l-352.725 352.768c-8.32 8.32-8.32 21.845 0 30.165s21.845 8.32 30.165 0l352.725-352.853c8.235-8.277 8.235-21.803 0-30.165-4.139-4.053-9.643-6.144-15.061-6.144zM206.080 252.075c-5.461 0-10.923 2.091-15.104 6.229-8.32 8.277-8.32 21.803 0 30.165l352.725 352.811c8.235 8.32 21.845 8.32 30.165 0 8.235-8.32 8.235-21.845 0-30.165l-352.725-352.811c-4.181-4.139-9.6-6.229-15.061-6.229z" />
<glyph unicode="&#xe94c;" glyph-name="arrow-x-right" d="M992-64h-588.331c-6.656 0-12.971 3.115-16.981 8.448l-371.669 490.667c-5.803 7.595-5.803 18.133 0 25.728l371.669 490.667c4.096 5.333 10.325 8.491 16.981 8.491h588.331c11.733 0 21.333-9.557 21.333-21.333v-981.333c0-11.733-9.6-21.333-21.333-21.333zM414.251-21.333h556.416v938.667h-556.416l-355.499-469.333 355.499-469.333zM504.448 252.075c-5.461 0-10.965 2.091-15.104 6.229-8.32 8.277-8.32 21.803 0 30.165l352.683 352.811c8.32 8.32 21.931 8.32 30.165 0 8.32-8.32 8.32-21.845 0-30.165l-352.683-352.811c-4.139-4.139-9.6-6.229-15.061-6.229zM857.131 252.075c-5.461 0-10.923 2.091-15.104 6.229l-352.683 352.768c-8.32 8.32-8.32 21.845 0 30.165s21.845 8.32 30.165 0l352.683-352.853c8.32-8.277 8.32-21.803 0-30.165-4.096-4.053-9.6-6.144-15.061-6.144z" />
<glyph unicode="&#xe94d;" glyph-name="at-sign" d="M447.317 147.797c-123.691 0-190.421 110.933-190.421 215.339 0 190.080 129.835 338.901 295.595 338.901 53.675 0 108.544-15.317 163.157-45.568 7.936-4.437 12.245-13.355 10.667-22.272 0-0.043-13.355-77.355-42.667-252.544-33.963-203.477-162.645-233.856-236.331-233.856zM552.491 659.371c-141.824 0-252.928-130.176-252.928-296.235 0-83.712 51.797-172.672 147.755-172.672 73.515 0 166.955 34.389 194.304 198.187 21.931 130.987 34.859 207.275 40.021 237.525-43.648 22.016-87.040 33.195-129.152 33.195zM469.333-63.531c-191.829 0-469.333 151.936-469.333 426.667 0 437.589 331.691 596.395 554.667 596.395 264.32 0 469.333-251.733 469.333-468.437 0-227.797-71.765-343.339-213.333-343.339-101.803 0-169.344 142.848-169.344 237.355 0 11.776 9.557 21.333 21.333 21.333 11.733 0 21.333-9.557 21.333-21.333 0-76.885 56.747-194.688 126.677-194.688 114.816 0 170.667 98.347 170.667 300.672 0 196.864-186.368 425.771-426.667 425.771-205.824 0-512-147.456-512-553.771 0-247.253 252.288-384 426.667-384 125.781 0 182.315 39.893 182.955 40.235 9.515 6.912 22.869 4.779 29.696-4.565 6.997-9.472 5.077-22.699-4.395-29.696-2.603-1.963-66.859-48.597-208.256-48.597z" />
<glyph unicode="&#xe94e;" glyph-name="atm" d="M64-42.667c-11.776 0-21.333 9.6-21.333 21.333v853.333c0 11.776 9.557 21.333 21.333 21.333s21.333-9.557 21.333-21.333v-853.333c0-11.733-9.557-21.333-21.333-21.333zM64 810.667c-11.776 0-21.333 9.557-21.333 21.333 0 70.571 57.429 128 128 128 11.776 0 21.333-9.557 21.333-21.333s-9.557-21.333-21.333-21.333c-47.061 0-85.333-38.315-85.333-85.333 0-11.776-9.557-21.333-21.333-21.333zM960-42.667c-11.733 0-21.333 9.6-21.333 21.333v853.333c0 11.776 9.6 21.333 21.333 21.333s21.333-9.557 21.333-21.333v-853.333c0-11.733-9.6-21.333-21.333-21.333zM960 810.667c-11.733 0-21.333 9.557-21.333 21.333 0 47.019-38.229 85.333-85.333 85.333-11.733 0-21.333 9.557-21.333 21.333s9.6 21.333 21.333 21.333c70.571 0 128-57.429 128-128 0-11.776-9.6-21.333-21.333-21.333zM853.333 917.333h-682.667c-11.776 0-21.333 9.557-21.333 21.333s9.557 21.333 21.333 21.333h682.667c11.733 0 21.333-9.557 21.333-21.333s-9.6-21.333-21.333-21.333zM149.333 512c-11.776 0-21.333 9.557-21.333 21.333v213.333c0 11.776 9.557 21.333 21.333 21.333s21.333-9.557 21.333-21.333v-213.333c0-11.776-9.557-21.333-21.333-21.333zM618.667 512c-11.733 0-21.333 9.557-21.333 21.333v213.333c0 11.776 9.6 21.333 21.333 21.333s21.333-9.557 21.333-21.333v-213.333c0-11.776-9.6-21.333-21.333-21.333zM149.333 725.333c-11.776 0-21.333 9.557-21.333 21.333 0 70.571 57.429 128 128 128 11.776 0 21.333-9.557 21.333-21.333s-9.557-21.333-21.333-21.333c-47.061 0-85.333-38.315-85.333-85.333 0-11.776-9.557-21.333-21.333-21.333zM512 832h-256c-11.776 0-21.333 9.557-21.333 21.333s9.557 21.333 21.333 21.333h256c11.776 0 21.333-9.557 21.333-21.333s-9.557-21.333-21.333-21.333zM554.667 448h-341.333c-11.776 0-21.333 9.557-21.333 21.333s9.557 21.333 21.333 21.333h341.333c11.733 0 21.333-9.557 21.333-21.333s-9.6-21.333-21.333-21.333zM981.333-64h-938.667c-11.776 0-21.333 9.6-21.333 21.333s9.557 21.333 21.333 21.333h938.667c11.733 0 21.333-9.6 21.333-21.333s-9.6-21.333-21.333-21.333zM618.667 725.333c-11.733 0-21.333 9.557-21.333 21.333 0 47.019-38.229 85.333-85.333 85.333-11.776 0-21.333 9.557-21.333 21.333s9.557 21.333 21.333 21.333c70.571 0 128-57.429 128-128 0-11.776-9.6-21.333-21.333-21.333zM213.333 448c-47.061 0-85.333 38.272-85.333 85.333 0 11.776 9.557 21.333 21.333 21.333s21.333-9.557 21.333-21.333c0-23.552 19.157-42.667 42.667-42.667 11.776 0 21.333-9.557 21.333-21.333s-9.557-21.333-21.333-21.333zM554.667 448c-11.733 0-21.333 9.557-21.333 21.333s9.6 21.333 21.333 21.333c23.509 0 42.667 19.115 42.667 42.667 0 11.776 9.6 21.333 21.333 21.333s21.333-9.557 21.333-21.333c0-47.061-38.229-85.333-85.333-85.333zM682.667 576h213.333v-42.667h-213.333v42.667zM213.333 362.667h42.667v-42.667h-42.667v42.667zM298.667 362.667h42.667v-42.667h-42.667v42.667zM384 362.667h42.667v-42.667h-42.667v42.667zM469.333 362.667h42.667v-42.667h-42.667v42.667zM213.333 277.333h42.667v-42.667h-42.667v42.667zM298.667 277.333h42.667v-42.667h-42.667v42.667zM384 277.333h42.667v-42.667h-42.667v42.667zM469.333 277.333h42.667v-42.667h-42.667v42.667zM213.333 192h42.667v-42.667h-42.667v42.667zM298.667 192h42.667v-42.667h-42.667v42.667zM384 192h42.667v-42.667h-42.667v42.667zM469.333 192h42.667v-42.667h-42.667v42.667z" />
<glyph unicode="&#xe94f;" glyph-name="baby-clothes" d="M511.403-53.717c-60.459 0-99.541 22.272-99.541 56.917 0 77.312-70.016 160.811-182.997 160.811-11.776 0-21.333 9.557-21.333 21.333v412.032l-62.805-5.248c-6.571-0.555-13.227 2.005-17.707 7.083l-91.008 102.144c-6.869 7.723-7.253 19.157-0.896 27.307 5.675 7.253 140.544 178.773 320 220.416 11.264 2.56 22.699-4.352 25.515-15.659 11.947-47.616 60.672-183.509 126.165-183.509 68.224 0 122.539 136.491 136.32 184.277 3.157 10.923 14.379 17.451 25.301 14.933 179.328-41.643 314.752-211.541 320.469-218.752 6.528-8.32 6.059-20.181-1.237-27.861l-97.323-102.912c-4.437-4.651-10.837-7.083-16.981-6.613l-68.352 4.779v-412.373c0-11.733-9.6-21.333-21.333-21.333-75.819 0-172.587-90.069-172.587-160.768-0.128-34.688-39.168-57.003-99.669-57.003zM250.197 205.781c126.805-10.112 204.331-109.867 204.331-202.581 1.749-3.883 21.333-14.251 56.875-14.251s55.125 10.368 56.917 14.507c-0.043 88.107 99.029 188.032 193.835 201.643v415.445c0 5.888 2.475 11.563 6.784 15.616s10.069 6.016 16.043 5.675l81.067-5.717 77.312 81.749c-34.176 38.784-138.283 147.2-265.728 184.576-18.645-55.125-75.307-195.243-168.96-195.243-95.36 0-146.901 139.136-163.797 195.029-127.872-37.888-231.509-147.712-264.875-186.24l71.723-80.469 75.349 6.272c6.059 0.469 11.819-1.536 16.213-5.547 4.395-4.053 6.912-9.771 6.912-15.701v-414.763zM509.781 319.829c-2.688 0-5.333 0.512-7.936 1.493-97.664 38.912-170.624 156.245-144.555 232.491 11.648 34.133 40.107 55.296 74.283 55.296 29.056 0 56.789-14.848 78.165-40.875 21.376 26.069 49.024 40.875 78.165 40.875 34.176 0 62.635-21.205 74.283-55.296 26.027-76.245-46.933-193.621-144.597-232.491-2.475-0.981-5.12-1.493-7.808-1.493zM431.616 566.485c-15.829 0-28.16-9.643-33.92-26.453-16.725-48.811 34.347-140.16 112.043-175.659 77.696 35.499 128.768 126.848 112.043 175.659-5.76 16.811-18.091 26.453-33.92 26.453-17.195 0-41.771-12.373-59.093-47.019-7.253-14.464-30.933-14.464-38.187 0-17.237 34.645-41.771 47.019-58.965 47.019z" />
<glyph unicode="&#xe950;" glyph-name="baby-clothes-2" d="M627.499 106.667h-231.040c-218.667 0-396.459 177.835-396.459 396.459v186.197c0 55.125 44.8 100.011 99.968 100.011h824.021c55.168 0 100.011-44.885 100.011-100.011v-186.197c0-218.624-177.835-396.459-396.501-396.459zM99.968 746.667c-31.573 0-57.301-25.728-57.301-57.344v-186.197c0-195.115 158.72-353.792 353.792-353.792h231.083c195.029 0 353.792 158.677 353.792 353.792v186.197c0 31.616-25.771 57.344-57.344 57.344h-824.021zM398.336 124.117l-41.6 9.643c6.229 26.923 9.429 53.675 9.429 79.573 0 190.251-154.88 347.989-345.301 351.701l0.853 42.667c213.504-4.139 387.157-181.035 387.157-394.368 0-29.184-3.541-59.179-10.539-89.216zM607.744 124.117c-6.912 30.080-10.496 60.075-10.496 89.216 0 213.333 173.653 390.229 387.157 394.325l0.853-42.667c-190.421-3.669-345.344-161.408-345.344-351.659 0-25.813 3.157-52.651 9.472-79.573l-41.643-9.643zM326.315 431.189l-33.707 26.197c48.128 62.037 73.557 136.448 73.557 215.168 0 25.856-3.157 52.651-9.429 79.531l41.6 9.685c6.997-30.123 10.539-60.117 10.539-89.216 0-88.277-28.544-171.733-82.56-241.365zM679.851 431.104c-54.016 69.589-82.603 153.088-82.603 241.451 0 29.141 3.584 59.136 10.496 89.216l41.643-9.685c-6.229-26.88-9.472-53.675-9.472-79.531 0-78.805 25.515-153.259 73.685-215.296l-33.749-26.155zM805.333 610.688c-35.328 0-64 28.715-64 64s28.672 64 64 64c35.243 0 64-28.715 64-64s-28.757-64-64-64zM805.333 696.021c-11.733 0-21.333-9.6-21.333-21.333s9.6-21.333 21.333-21.333 21.333 9.6 21.333 21.333-9.6 21.333-21.333 21.333zM208 610.688c-35.285 0-64 28.715-64 64s28.715 64 64 64 64-28.715 64-64-28.715-64-64-64zM208 696.021c-11.776 0-21.333-9.6-21.333-21.333s9.557-21.333 21.333-21.333 21.333 9.6 21.333 21.333-9.6 21.333-21.333 21.333z" />
<glyph unicode="&#xe951;" glyph-name="bag" d="M746.667 533.333h-469.333c-11.776 0-21.333 9.557-21.333 21.333v149.333c0 143.531 110.123 256 250.667 256 141.653 0 261.333-117.248 261.333-256v-149.333c0-11.776-9.6-21.333-21.333-21.333zM298.667 576h426.667v128c0 115.627-100.181 213.333-218.667 213.333-116.608 0-208-93.696-208-213.333v-128zM832-64h-640c-11.776 0-21.333 9.6-21.333 21.333v597.333c0 11.776 9.557 21.333 21.333 21.333h640c11.733 0 21.333-9.557 21.333-21.333v-597.333c0-11.733-9.6-21.333-21.333-21.333zM213.333-21.333h597.333v554.667h-597.333v-554.667zM576 106.667h-128c-11.776 0-21.333 9.6-21.333 21.333v170.667c0 11.733 9.557 21.333 21.333 21.333h128c11.733 0 21.333-9.6 21.333-21.333v-170.667c0-11.733-9.6-21.333-21.333-21.333zM469.333 149.333h85.333v128h-85.333v-128zM746.667 192h-149.333c-11.733 0-21.333 9.6-21.333 21.333s9.6 21.333 21.333 21.333h128v298.667h-426.667v-298.667h128c11.776 0 21.333-9.6 21.333-21.333s-9.557-21.333-21.333-21.333h-149.333c-11.776 0-21.333 9.6-21.333 21.333v341.333c0 11.776 9.557 21.333 21.333 21.333h469.333c11.733 0 21.333-9.557 21.333-21.333v-341.333c0-11.733-9.6-21.333-21.333-21.333z" />
<glyph unicode="&#xe952;" glyph-name="bakelite" d="M832 597.333c-11.733 0-21.333 9.557-21.333 21.333 0 164.693-134.016 298.667-298.667 298.667-164.693 0-298.667-133.973-298.667-298.667 0-11.776-9.557-21.333-21.333-21.333s-21.333 9.557-21.333 21.333c0 188.203 153.131 341.333 341.333 341.333s341.333-153.131 341.333-341.333c0-11.776-9.6-21.333-21.333-21.333zM618.667 597.333c-11.733 0-21.333 9.557-21.333 21.333 0 47.061-38.229 85.333-85.333 85.333-47.061 0-85.333-38.272-85.333-85.333 0-11.776-9.557-21.333-21.333-21.333s-21.333 9.557-21.333 21.333c0 70.571 57.429 128 128 128s128-57.429 128-128c0-11.776-9.6-21.333-21.333-21.333zM730.667 682.709c-8.533 0-16.597 5.163-19.883 13.568-32.213 82.432-110.251 135.723-198.784 135.723-11.776 0-21.333 9.557-21.333 21.333s9.557 21.333 21.333 21.333c106.24 0 199.936-63.915 238.507-162.816 4.352-10.965-1.152-23.339-12.075-27.648-2.56-1.024-5.163-1.493-7.765-1.493zM874.667-64h-725.333c-11.776 0-21.333 9.6-21.333 21.333v640c0 11.776 9.557 21.333 21.333 21.333h725.333c11.733 0 21.333-9.557 21.333-21.333v-640c0-11.733-9.6-21.333-21.333-21.333zM170.667-21.333h682.667v597.333h-682.667v-597.333z" />
</font>
</defs>
</svg>
