<?xml version="1.0" standalone="no"?>
<!DOCTYPE svg PUBLIC "-//W3C//DTD SVG 1.1//EN" "http://www.w3.org/Graphics/SVG/1.1/DTD/svg11.dtd" >
<svg xmlns="http://www.w3.org/2000/svg">
<metadata>Generated by IcoMoon</metadata>
<defs>
<font id="premium-solid-icons" horiz-adv-x="1024">
<font-face units-per-em="1024" ascent="960" descent="-64" />
<missing-glyph horiz-adv-x="1024" />
<glyph unicode="&#x20;" horiz-adv-x="512" d="" />
<glyph unicode="&#xe900;" glyph-name="aa" d="M386.517 866.944c-6.187 20.395-26.368 32.043-46.891 29.056-20.48 2.987-40.704-8.619-46.891-29.056l-245.803-812.373c-6.827-22.571 5.931-46.421 28.459-53.248 4.139-1.237 8.277-1.835 12.373-1.835 18.304 0 35.243 11.904 40.832 30.336l48.427 160.085h325.163l48.427-160.085c5.589-18.432 22.485-30.336 40.832-30.336 4.096 0 8.235 0.597 12.373 1.835 22.528 6.784 35.328 30.677 28.459 53.248l-245.76 812.373zM202.88 275.328l136.747 451.925 136.747-451.925h-273.493zM976.853 399.829c-12.075 37.803-37.077 65.024-72.235 78.72-98.048 38.144-248.405-45.141-265.216-54.699-20.437-11.691-27.563-37.717-15.872-58.112 11.648-20.48 37.717-27.563 58.155-16 42.24 24.021 144.725 67.755 192 49.28 6.912-2.688 14.507-7.168 19.925-19.755v-50.219c-64.811-0.085-167.339-9.771-225.835-63.445-30.080-27.605-45.696-64.384-45.227-105.941 0.725-55.595 29.696-98.987 81.792-122.155 28.672-12.757 61.909-18.347 95.744-18.347 35.328 0 71.253 6.144 103.296 16.683 7.893-9.813 19.371-16.512 32.896-16.512 23.595 0 42.667 19.072 42.667 42.667v324.864c-0.043 4.395-0.725 8.789-2.091 12.971zM893.568 123.307c-45.312-19.029-112.896-26.283-154.581-7.808-21.333 9.429-30.933 23.424-31.147 45.269-0.213 17.621 5.163 30.592 17.579 41.899 35.243 32.427 112.853 40.32 168.149 40.747v-120.107z" />
<glyph unicode="&#xe901;" glyph-name="add-space-after-paragraph" d="M43.136 128c-8.235 0-16.597 2.432-23.936 7.339-19.499 13.269-24.576 39.765-11.349 59.264l85.035 125.355-85.035 125.355c-13.269 19.499-8.149 45.995 11.349 59.264s46.037 8.149 59.264-11.349l101.333-149.333c9.813-14.507 9.813-33.493 0-47.915l-101.333-149.333c-8.277-12.16-21.675-18.645-35.328-18.645zM980.907 682.667h-725.333c-23.552 0-42.667 19.115-42.667 42.667s19.115 42.667 42.667 42.667h725.333c23.509 0 42.667-19.115 42.667-42.667s-19.157-42.667-42.667-42.667zM554.24 554.667h-298.667c-23.552 0-42.667 19.115-42.667 42.667s19.115 42.667 42.667 42.667h298.667c23.509 0 42.667-19.115 42.667-42.667s-19.157-42.667-42.667-42.667zM810.24 426.667h-554.667c-23.552 0-42.667 19.115-42.667 42.667s19.115 42.667 42.667 42.667h554.667c23.509 0 42.667-19.115 42.667-42.667s-19.157-42.667-42.667-42.667zM298.24 298.667h-42.667c-23.552 0-42.667 19.115-42.667 42.667s19.115 42.667 42.667 42.667h42.667c23.552 0 42.667-19.115 42.667-42.667s-19.115-42.667-42.667-42.667zM468.907 298.667h-42.667c-23.552 0-42.667 19.115-42.667 42.667s19.115 42.667 42.667 42.667h42.667c23.552 0 42.667-19.115 42.667-42.667s-19.115-42.667-42.667-42.667zM639.573 298.667h-42.667c-23.595 0-42.667 19.115-42.667 42.667s19.072 42.667 42.667 42.667h42.667c23.509 0 42.667-19.115 42.667-42.667s-19.157-42.667-42.667-42.667zM810.24 298.667h-42.667c-23.595 0-42.667 19.115-42.667 42.667s19.072 42.667 42.667 42.667h42.667c23.509 0 42.667-19.115 42.667-42.667s-19.157-42.667-42.667-42.667zM980.907 298.667h-42.667c-23.595 0-42.667 19.115-42.667 42.667s19.072 42.667 42.667 42.667h42.667c23.509 0 42.667-19.115 42.667-42.667s-19.157-42.667-42.667-42.667zM298.24 170.667h-42.667c-23.552 0-42.667 19.115-42.667 42.667s19.115 42.667 42.667 42.667h42.667c23.552 0 42.667-19.115 42.667-42.667s-19.115-42.667-42.667-42.667zM468.907 170.667h-42.667c-23.552 0-42.667 19.115-42.667 42.667s19.115 42.667 42.667 42.667h42.667c23.552 0 42.667-19.115 42.667-42.667s-19.115-42.667-42.667-42.667zM639.573 170.667h-42.667c-23.595 0-42.667 19.115-42.667 42.667s19.072 42.667 42.667 42.667h42.667c23.509 0 42.667-19.115 42.667-42.667s-19.157-42.667-42.667-42.667zM810.24 170.667h-42.667c-23.595 0-42.667 19.115-42.667 42.667s19.072 42.667 42.667 42.667h42.667c23.509 0 42.667-19.115 42.667-42.667s-19.157-42.667-42.667-42.667zM980.907 170.667h-42.667c-23.595 0-42.667 19.115-42.667 42.667s19.072 42.667 42.667 42.667h42.667c23.509 0 42.667-19.115 42.667-42.667s-19.157-42.667-42.667-42.667z" />
<glyph unicode="&#xe902;" glyph-name="add-space-before-paragraph" d="M895.573 277.333h-554.667c-23.552 0-42.667 19.157-42.667 42.667 0 23.595 19.115 42.667 42.667 42.667h554.667c23.509 0 42.667-19.072 42.667-42.667 0-23.509-19.157-42.667-42.667-42.667zM596.907 149.333h-256c-23.552 0-42.667 19.157-42.667 42.667 0 23.595 19.115 42.667 42.667 42.667h256c23.509 0 42.667-19.072 42.667-42.667 0-23.509-19.157-42.667-42.667-42.667zM128.469 362.667c-8.235 0-16.597 2.432-23.936 7.339-19.499 13.269-24.576 39.765-11.349 59.264l85.035 125.397-85.035 125.355c-13.269 19.499-8.149 45.995 11.349 59.264s46.037 8.149 59.264-11.349l101.333-149.333c9.813-14.507 9.813-33.493 0-47.915l-101.333-149.333c-8.277-12.203-21.675-18.688-35.328-18.688zM383.573 533.333h-42.667c-23.552 0-42.667 19.115-42.667 42.667s19.115 42.667 42.667 42.667h42.667c23.552 0 42.667-19.115 42.667-42.667s-19.115-42.667-42.667-42.667zM554.24 533.333h-42.667c-23.552 0-42.667 19.115-42.667 42.667s19.115 42.667 42.667 42.667h42.667c23.509 0 42.667-19.115 42.667-42.667s-19.157-42.667-42.667-42.667zM724.907 533.333h-42.667c-23.595 0-42.667 19.115-42.667 42.667s19.072 42.667 42.667 42.667h42.667c23.509 0 42.667-19.115 42.667-42.667s-19.157-42.667-42.667-42.667zM895.573 533.333h-42.667c-23.595 0-42.667 19.115-42.667 42.667s19.072 42.667 42.667 42.667h42.667c23.509 0 42.667-19.115 42.667-42.667s-19.157-42.667-42.667-42.667zM383.573 405.333h-42.667c-23.552 0-42.667 19.157-42.667 42.667 0 23.552 19.115 42.667 42.667 42.667h42.667c23.552 0 42.667-19.115 42.667-42.667 0-23.509-19.115-42.667-42.667-42.667zM554.24 405.333h-42.667c-23.552 0-42.667 19.157-42.667 42.667 0 23.552 19.115 42.667 42.667 42.667h42.667c23.509 0 42.667-19.115 42.667-42.667 0-23.509-19.157-42.667-42.667-42.667zM724.907 405.333h-42.667c-23.595 0-42.667 19.157-42.667 42.667 0 23.552 19.072 42.667 42.667 42.667h42.667c23.509 0 42.667-19.115 42.667-42.667 0-23.509-19.157-42.667-42.667-42.667zM895.573 405.333h-42.667c-23.595 0-42.667 19.157-42.667 42.667 0 23.552 19.072 42.667 42.667 42.667h42.667c23.509 0 42.667-19.115 42.667-42.667 0-23.509-19.157-42.667-42.667-42.667z" />
<glyph unicode="&#xe903;" glyph-name="address-book" d="M554.667 405.333c-98.773 0-204.032-56.576-212.736-213.333h425.515c-8.747 156.757-114.048 213.333-212.779 213.333zM128 960h-64c-11.776 0-21.333-9.557-21.333-21.333v-981.333c0-11.733 9.557-21.333 21.333-21.333h64v1024zM853.333 960h-682.667v-1024h725.333c47.104 0 85.333 38.229 85.333 85.333v810.667c0 70.571-57.429 128-128 128zM554.667 746.667c70.571 0 128-57.429 128-128s-57.429-128-128-128c-70.571 0-128 57.429-128 128s57.429 128 128 128zM790.187 149.333c-0.256 0-0.555 0-0.853 0h-469.333c-11.776 0-21.333 9.6-21.333 21.333 0 168.448 100.437 277.333 256 277.333 153.685 0 253.483-106.24 255.957-271.147 0.64-1.92 0.896-4.053 0.896-6.187 0-11.733-9.557-21.333-21.333-21.333zM640 618.667c0-47.125-38.208-85.333-85.333-85.333s-85.333 38.208-85.333 85.333c0 47.125 38.208 85.333 85.333 85.333s85.333-38.208 85.333-85.333z" />
<glyph unicode="&#xe904;" glyph-name="address-book-2" d="M992 832h-64v42.667c0 47.061-38.229 85.333-85.333 85.333h-746.667c-11.776 0-21.333-9.557-21.333-21.333v-64h-42.667c-11.776 0-21.333-9.557-21.333-21.333s9.557-21.333 21.333-21.333h42.667v-85.333h-42.667c-11.776 0-21.333-9.557-21.333-21.333s9.557-21.333 21.333-21.333h42.667v-85.333h-42.667c-11.776 0-21.333-9.557-21.333-21.333s9.557-21.333 21.333-21.333h42.667v-85.333h-42.667c-11.776 0-21.333-9.557-21.333-21.333s9.557-21.333 21.333-21.333h42.667v-85.333h-42.667c-11.776 0-21.333-9.6-21.333-21.333s9.557-21.333 21.333-21.333h42.667v-85.333h-42.667c-11.776 0-21.333-9.6-21.333-21.333s9.557-21.333 21.333-21.333h42.667v-85.333h-42.667c-11.776 0-21.333-9.6-21.333-21.333s9.557-21.333 21.333-21.333h42.667v-106.667c0-11.733 9.557-21.333 21.333-21.333h746.667c47.104 0 85.333 38.229 85.333 85.333h64c11.733 0 21.333 9.6 21.333 21.333v768c0 11.776-9.6 21.333-21.333 21.333zM245.333 106.667c0-11.733-9.557-21.333-21.333-21.333s-21.333 9.6-21.333 21.333v725.333c0 11.776 9.557 21.333 21.333 21.333s21.333-9.557 21.333-21.333v-725.333zM970.667 149.333h-42.667v42.667h42.667v-42.667zM970.667 277.333h-42.667v42.667h42.667v-42.667zM970.667 405.333h-42.667v42.667h42.667v-42.667zM970.667 533.333h-42.667v42.667h42.667v-42.667zM970.667 661.333h-42.667v42.667h42.667v-42.667z" />
<glyph unicode="&#xe905;" glyph-name="airbrush" d="M994.603 524.117c-7.253 9.259-20.608 10.88-29.909 3.627-59.264-46.507-130.389-2.816-163.669 23.339l11.733 11.733c4.011 4.011 6.229 9.429 6.229 15.104 0 5.632-2.304 11.051-6.229 15.104l-45.269 45.269 105.6 105.6c8.32 8.32 8.32 21.845 0 30.165l-90.496 90.539c-4.011 4.011-9.429 6.229-15.104 6.229s-11.093-2.261-15.104-6.229l-377.6-377.6c0.597 5.12-0.683 10.24-3.584 14.464l-76.459 111.147c-3.584 5.248-9.301 8.576-15.616 9.173-6.443 0.597-12.544-1.707-17.024-6.187l-128.213-128.171c-4.437-4.437-6.656-10.539-6.187-16.768s3.669-11.904 8.704-15.573l108.501-79.061c2.944-2.219 6.443-3.584 10.112-4.011l4.395-0.512-62.037-62.080c-1.707-1.664-5.675-4.011-9.515-6.187-6.443-3.755-14.507-8.405-21.632-15.573-17.707-17.749-27.819-41.173-28.459-66.005-0.64-25.088 8.405-48.299 25.472-65.323 16.64-16.597 40.277-26.155 64.981-26.155v0c25.728 0 49.792 9.899 67.669 27.819 6.955 6.912 11.691 14.763 15.488 21.035 2.347 3.883 4.736 7.893 6.613 9.728l358.912 358.955 45.312-45.227c8.277-8.32 21.803-8.32 30.165 0l18.176 18.219c33.493-27.307 84.139-55.723 136.747-55.723 28.16 0 56.917 8.192 83.584 29.141 9.344 7.296 10.923 20.693 3.712 29.995zM92.459 482.944c5.419 0 10.837 2.048 15.019 6.187l153.344 152.021c8.363 8.277 8.405 21.76 0.128 30.123s-21.803 8.405-30.165 0.171l-153.344-152.021c-8.363-8.277-8.405-21.803-0.128-30.165 4.181-4.181 9.643-6.315 15.147-6.315zM135.595 172.672c-8.32 8.32-21.803 8.405-30.165 0.085l-74.24-73.771c-4.053-4.053-6.315-9.643-6.272-15.275 0.043-5.845 2.432-11.264 6.613-15.232l39.125-37.333c4.139-3.925 9.429-5.931 14.72-5.931 5.077 0 10.197 1.835 14.251 5.504l77.781 69.803c8.789 7.893 9.515 21.376 1.621 30.123s-35.115 33.621-43.435 42.027z" />
<glyph unicode="&#xe906;" glyph-name="align-center" d="M42.667 661.333h938.667c23.552 0 42.667 19.115 42.667 42.667s-19.115 42.667-42.667 42.667h-938.667c-23.552 0-42.667-19.115-42.667-42.667s19.115-42.667 42.667-42.667zM896 576c0 23.552-19.115 42.667-42.667 42.667h-725.333c-23.552 0-42.667-19.115-42.667-42.667s19.115-42.667 42.667-42.667h725.333c23.552 0 42.667 19.115 42.667 42.667zM682.667 405.333c23.552 0 42.667 19.115 42.667 42.667s-19.115 42.667-42.667 42.667h-341.333c-23.552 0-42.667-19.115-42.667-42.667s19.115-42.667 42.667-42.667h341.333zM128 320c0-23.552 19.115-42.667 42.667-42.667h640c23.552 0 42.667 19.115 42.667 42.667s-19.115 42.667-42.667 42.667h-640c-23.552 0-42.667-19.115-42.667-42.667zM981.333 234.667h-938.667c-23.552 0-42.667-19.115-42.667-42.667s19.115-42.667 42.667-42.667h938.667c23.552 0 42.667 19.115 42.667 42.667s-19.115 42.667-42.667 42.667z" />
<glyph unicode="&#xe907;" glyph-name="align-justify-all" d="M42.667 661.333h938.667c23.552 0 42.667 19.115 42.667 42.667s-19.115 42.667-42.667 42.667h-938.667c-23.552 0-42.667-19.115-42.667-42.667s19.115-42.667 42.667-42.667zM981.333 618.667h-938.667c-23.552 0-42.667-19.115-42.667-42.667s19.115-42.667 42.667-42.667h938.667c23.552 0 42.667 19.115 42.667 42.667s-19.115 42.667-42.667 42.667zM981.333 490.667h-938.667c-23.552 0-42.667-19.115-42.667-42.667s19.115-42.667 42.667-42.667h938.667c23.552 0 42.667 19.115 42.667 42.667s-19.115 42.667-42.667 42.667zM981.333 362.667h-938.667c-23.552 0-42.667-19.115-42.667-42.667s19.115-42.667 42.667-42.667h938.667c23.552 0 42.667 19.115 42.667 42.667s-19.115 42.667-42.667 42.667zM981.333 234.667h-938.667c-23.552 0-42.667-19.115-42.667-42.667s19.115-42.667 42.667-42.667h938.667c23.552 0 42.667 19.115 42.667 42.667s-19.115 42.667-42.667 42.667z" />
<glyph unicode="&#xe908;" glyph-name="align-justify-center" d="M42.667 661.333h938.667c23.552 0 42.667 19.115 42.667 42.667s-19.115 42.667-42.667 42.667h-938.667c-23.552 0-42.667-19.115-42.667-42.667s19.115-42.667 42.667-42.667zM981.333 618.667h-938.667c-23.552 0-42.667-19.115-42.667-42.667s19.115-42.667 42.667-42.667h938.667c23.552 0 42.667 19.115 42.667 42.667s-19.115 42.667-42.667 42.667zM981.333 490.667h-938.667c-23.552 0-42.667-19.115-42.667-42.667s19.115-42.667 42.667-42.667h938.667c23.552 0 42.667 19.115 42.667 42.667s-19.115 42.667-42.667 42.667zM981.333 362.667h-938.667c-23.552 0-42.667-19.115-42.667-42.667s19.115-42.667 42.667-42.667h938.667c23.552 0 42.667 19.115 42.667 42.667s-19.115 42.667-42.667 42.667zM768 234.667h-512c-23.552 0-42.667-19.115-42.667-42.667s19.115-42.667 42.667-42.667h512c23.552 0 42.667 19.115 42.667 42.667s-19.115 42.667-42.667 42.667z" />
<glyph unicode="&#xe909;" glyph-name="align-justify-left" d="M42.667 661.333h938.667c23.552 0 42.667 19.115 42.667 42.667s-19.115 42.667-42.667 42.667h-938.667c-23.552 0-42.667-19.115-42.667-42.667s19.115-42.667 42.667-42.667zM981.333 618.667h-938.667c-23.552 0-42.667-19.115-42.667-42.667s19.115-42.667 42.667-42.667h938.667c23.552 0 42.667 19.115 42.667 42.667s-19.115 42.667-42.667 42.667zM981.333 490.667h-938.667c-23.552 0-42.667-19.115-42.667-42.667s19.115-42.667 42.667-42.667h938.667c23.552 0 42.667 19.115 42.667 42.667s-19.115 42.667-42.667 42.667zM981.333 362.667h-938.667c-23.552 0-42.667-19.115-42.667-42.667s19.115-42.667 42.667-42.667h938.667c23.552 0 42.667 19.115 42.667 42.667s-19.115 42.667-42.667 42.667zM981.333 234.667h-512c-23.552 0-42.667-19.115-42.667-42.667s19.115-42.667 42.667-42.667h512c23.552 0 42.667 19.115 42.667 42.667s-19.115 42.667-42.667 42.667z" />
<glyph unicode="&#xe90a;" glyph-name="align-justify-right" d="M981.333 661.333h-938.667c-23.552 0-42.667 19.115-42.667 42.667s19.115 42.667 42.667 42.667h938.667c23.552 0 42.667-19.115 42.667-42.667s-19.115-42.667-42.667-42.667zM981.333 533.333h-938.667c-23.552 0-42.667 19.115-42.667 42.667s19.115 42.667 42.667 42.667h938.667c23.552 0 42.667-19.115 42.667-42.667s-19.115-42.667-42.667-42.667zM981.333 405.333h-938.667c-23.552 0-42.667 19.115-42.667 42.667s19.115 42.667 42.667 42.667h938.667c23.552 0 42.667-19.115 42.667-42.667s-19.115-42.667-42.667-42.667zM981.333 277.333h-938.667c-23.552 0-42.667 19.115-42.667 42.667s19.115 42.667 42.667 42.667h938.667c23.552 0 42.667-19.115 42.667-42.667s-19.115-42.667-42.667-42.667zM554.667 149.333h-512c-23.552 0-42.667 19.115-42.667 42.667s19.115 42.667 42.667 42.667h512c23.552 0 42.667-19.115 42.667-42.667s-19.115-42.667-42.667-42.667z" />
<glyph unicode="&#xe90b;" glyph-name="align-left" d="M42.667 661.333h938.667c23.552 0 42.667 19.115 42.667 42.667s-19.115 42.667-42.667 42.667h-938.667c-23.552 0-42.667-19.115-42.667-42.667s19.115-42.667 42.667-42.667zM981.333 618.667h-725.333c-23.552 0-42.667-19.115-42.667-42.667s19.115-42.667 42.667-42.667h725.333c23.552 0 42.667 19.115 42.667 42.667s-19.115 42.667-42.667 42.667zM981.333 490.667h-341.333c-23.552 0-42.667-19.115-42.667-42.667s19.115-42.667 42.667-42.667h341.333c23.552 0 42.667 19.115 42.667 42.667s-19.115 42.667-42.667 42.667zM981.333 362.667h-640c-23.552 0-42.667-19.115-42.667-42.667s19.115-42.667 42.667-42.667h640c23.552 0 42.667 19.115 42.667 42.667s-19.115 42.667-42.667 42.667zM981.333 234.667h-938.667c-23.552 0-42.667-19.115-42.667-42.667s19.115-42.667 42.667-42.667h938.667c23.552 0 42.667 19.115 42.667 42.667s-19.115 42.667-42.667 42.667z" />
<glyph unicode="&#xe90c;" glyph-name="align-right" d="M981.333 746.667h-938.667c-23.552 0-42.667-19.115-42.667-42.667s19.115-42.667 42.667-42.667h938.667c23.552 0 42.667 19.115 42.667 42.667s-19.115 42.667-42.667 42.667zM768 618.667h-725.333c-23.552 0-42.667-19.115-42.667-42.667s19.115-42.667 42.667-42.667h725.333c23.552 0 42.667 19.115 42.667 42.667s-19.115 42.667-42.667 42.667zM42.667 405.333h341.333c23.552 0 42.667 19.115 42.667 42.667s-19.115 42.667-42.667 42.667h-341.333c-23.552 0-42.667-19.115-42.667-42.667s19.115-42.667 42.667-42.667zM682.667 362.667h-640c-23.552 0-42.667-19.115-42.667-42.667s19.115-42.667 42.667-42.667h640c23.552 0 42.667 19.115 42.667 42.667s-19.115 42.667-42.667 42.667zM554.667 234.667h-512c-23.552 0-42.667-19.115-42.667-42.667s19.115-42.667 42.667-42.667h512c23.552 0 42.667 19.115 42.667 42.667s-19.115 42.667-42.667 42.667z" />
<glyph unicode="&#xe90d;" glyph-name="alligator" d="M874.709 362.667c-11.776 0-21.333 9.515-21.333 21.333v42.667c0 11.819 9.557 21.333 21.333 21.333s21.333-9.515 21.333-21.333v-42.667c0-11.819-9.557-21.333-21.333-21.333zM789.376 320c-11.776 0-21.333 9.515-21.333 21.333v42.667c0 11.819 9.557 21.333 21.333 21.333s21.333-9.515 21.333-21.333v-42.667c0-11.819-9.557-21.333-21.333-21.333zM144.939 560.896c0-11.776-9.557-21.333-21.333-21.333s-21.333 9.557-21.333 21.333c0 11.776 9.557 21.333 21.333 21.333s21.333-9.557 21.333-21.333zM874.709 426.667c82.389 0 149.333 66.603 149.333 149.333 0 11.776-9.557 21.333-21.333 21.333h-39.211c-8.789 24.875-32.597 42.667-60.331 42.667-27.819 0-51.541-17.792-60.373-42.667h-586.581c-7.168 79.531-55.083 128-128.64 128-68.523 0-98.987-36.267-112.469-66.645-15.104-34.091-15.104-72.661-15.104-98.688v-368c0-11.733 9.557-21.333 21.333-21.333h896c11.733 0 21.333 10.411 21.333 22.229 0 81.835-66.987 148.437-149.333 148.437h-401.067l49.792 85.333h436.651zM905.984 582.229c11.733 0 21.333-9.6 21.333-21.333 0-11.776-9.6-21.333-21.333-21.333-11.691 0-21.333 9.557-21.333 21.333 0 11.733 9.643 21.333 21.333 21.333zM123.605 496.896c-35.285 0-64 28.672-64 64 0 35.243 28.715 64 64 64s64-28.757 64-64c0-35.328-28.715-64-64-64z" />
<glyph unicode="&#xe90e;" glyph-name="alpha" d="M981.461 326.144c-23.552 0-42.667-19.072-42.667-42.624 0-65.749-33.195-136.021-126.507-136.021-46.464 0-79.189 101.845-110.805 200.235-4.309 13.355-13.355 27.008-13.355 40.789v465.536c0 23.552-19.115 42.624-42.667 42.624s-42.667-19.072-42.667-42.624v-266.155c-42.667 83.712-125.312 145.408-241.707 145.408-226.219 0-361.173-137.301-361.173-367.275 0-208.981 148.011-366.677 344.235-366.677 143.744 0 261.632 84.395 314.411 211.413 33.579-84.736 76.331-148.437 153.685-148.437 126.677 0 211.797 88.917 211.797 221.312 0.043 23.381-19.029 42.496-42.581 42.496zM602.88 364.843c0-162.432-108.715-280.235-258.731-280.235-150.059 0-258.859 118.315-258.859 281.429 0 128.725 47.744 282.027 275.84 282.027 129.92 0 199.083-110.933 241.749-273.749v-9.472z" />
<glyph unicode="&#xe90f;" glyph-name="amx" d="M153.131 437.76h57.344l-20.693 57.344zM938.667 661.333h-853.333c-46.933 0-85.333-38.4-85.333-85.333v-233.813l156.501 233.813h90.667l53.12-136.832c-136.021-27.989-238.635-63.573-300.288-97.877v-21.291c0-46.933 38.4-85.333 85.333-85.333h853.333c46.933 0 85.333 38.4 85.333 85.333v256c0 46.933-38.4 85.333-85.333 85.333zM416.896 320h-171.563l-20.011 65.877c27.435 6.528 55.68 22.912 84.693 28.032l24.149-62.208 11.349 62.976c28.971 4.48 58.368 3.157 87.979 6.528l-16.597-101.205zM883.584 320l-59.563 66.901-79.104-66.901h-186.667l17.963 113.493c29.227 1.792 58.027 13.568 86.229 14.635l-14.677-93.056 115.328 95.317c54.571 0.597 104.619-10.411 146.987-11.435l84.565-118.955h-111.061zM925.099 490.837c-59.307 1.067-116.437 0.597-171.307-1.152l-70.059 80.085-13.909-83.925c-118.997-6.997-226.048-20.181-319.403-37.077l21.163 127.232h72.917l70.229-76.757 97.749 76.757h178.688l49.749-60.715 70.229 60.715h112l-98.048-85.163z" />
<glyph unicode="&#xe910;" glyph-name="anchor" d="M960.171 317.696l-86.315 149.717c-7.253 12.544-20.651 20.309-35.2 20.309-14.507 0-27.861-7.765-35.2-20.309l-89.984-155.861c-7.253-12.587-7.253-33.109 0-45.739 7.253-12.587 20.608-25.429 35.157-25.429h42.325c-25.643-128-108.672-193.749-236.672-210.688v637.397h79.189c22.443 0 40.619 20.267 40.619 42.667 0 22.443-18.176 42.667-40.619 42.667h-79.232v-5.035c42.667 16.256 69.035 56.064 69.035 102.741 0 61.056-50.133 110.72-111.189 110.72s-112.043-49.664-112.043-110.72c0-46.635 26.112-86.443 68.779-102.741v5.035h-79.189c-22.4 0-40.619-20.224-40.619-42.667 0-22.4 18.219-42.667 40.619-42.667h79.189v-637.355c-128 16.896-211.029 82.688-236.672 210.688h42.325c0.299 0 0.555 0 0.811 0 22.443 0 40.619 23.253 40.619 45.739 0 10.069-3.669 21.931-9.813 29.013l-86.357 150.955c-7.253 12.544-20.651 20.949-35.157 20.949-14.549 0-27.904-7.424-35.2-20.011l-89.984-155.648c-7.253-12.587-7.253-33.024 0-45.653 7.253-12.587 20.651-25.344 35.2-25.344h55.083c29.739-170.667 180.48-305.237 361.941-305.237s332.245 134.571 361.941 305.237h55.083c0.256 0 0.555 0 0.811 0 22.443 0 40.661 23.253 40.661 45.739-0.128 10.069-3.797 24.405-9.941 31.531z" />
<glyph unicode="&#xe911;" glyph-name="android" d="M768 633.728h-512c-11.776 0-21.333-9.557-21.333-21.333v-347.904c0-58.496 35.2-108.8 85.333-130.688v-120.32c0-34.005 26.923-58.667 64-58.667s64 24.661 64 58.667v108.331h128v-108.416c0-34.005 26.923-58.667 64-58.667s64 24.661 64 58.667v120.917c50.176 22.229 85.333 72.021 85.333 130.176v347.819c0 11.819-9.6 21.419-21.333 21.419zM256.597 683.563c4.053-4.523 9.856-7.168 15.957-7.168h477.227c6.101 0 11.861 2.688 15.957 7.168 4.053 4.523 5.973 10.667 5.248 16.768-8.704 72.021-38.997 127.488-86.613 164.651l32.256 42.027c7.168 9.387 5.419 22.784-3.925 29.952-9.387 7.168-22.741 5.333-29.909-3.925l-34.688-45.099c-38.229 19.285-83.925 29.824-136.96 29.824-56.363 0-104.917-11.563-144.427-33.323l-37.333 48.597c-7.168 9.301-20.523 11.093-29.867 3.925-9.387-7.168-11.136-20.565-3.968-29.952l35.84-46.635c-44.032-37.077-71.723-91.307-79.957-160.043-0.811-6.101 1.067-12.245 5.163-16.768zM896 633.728c-35.285 0-64-28.715-64-64v-213.291c0-35.328 28.715-64 64-64s64 28.672 64 64v213.291c0 35.285-28.715 64-64 64zM128 633.728c-35.285 0-64-28.715-64-64v-213.291c0-35.328 28.715-64 64-64s64 28.672 64 64v213.291c0 35.285-28.715 64-64 64z" />
<glyph unicode="&#xe912;" glyph-name="angel" d="M505.045 533.077c82.347 0 149.333 66.987 149.333 149.333s-66.987 149.333-149.333 149.333-149.333-66.987-149.333-149.333 67.029-149.333 149.333-149.333zM441.941 875.349h128c11.776 0 21.333 9.557 21.333 21.333s-9.557 21.333-21.333 21.333h-128c-11.776 0-21.333-9.557-21.333-21.333s9.6-21.333 21.333-21.333zM505.045 490.411c-57.941 0-109.355 26.325-144.555 67.029-91.477-117.12-174.933-357.205-175.104-520.704 0-8.149 4.565-15.659 11.947-19.243 68.011-33.28 222.464-39.083 308.693-39.509 85.973 0.469 240.469 6.229 308.437 39.509 7.339 3.584 11.904 11.093 11.904 19.243-0.171 164.053-84.181 405.12-175.915 521.771-35.2-41.301-86.955-68.096-145.408-68.096zM929.621 805.205c-5.845 19.883-22.997 33.877-43.52 35.669-20.437 1.963-40.064-8.747-49.365-27.221-32.683-64.299-88.619-127.744-144-168.96-3.712-17.323-9.6-33.877-17.493-49.323 53.76-64.085 104.533-166.144 140.757-274.645 42.752 17.237 77.184 45.355 101.803 84.736 79.701 127.829 34.816 322.176 11.819 399.744zM335.531 594.219c-10.197 19.541-17.493 40.789-20.608 63.36-49.749 40.96-98.176 98.176-127.616 156.117-9.344 18.432-28.672 29.184-49.408 27.264-20.523-1.877-37.632-15.915-43.52-35.712-22.997-77.568-67.883-271.829 11.819-399.573 22.485-36.096 53.632-62.080 91.392-79.573 35.84 105.771 85.461 205.013 137.941 268.117z" />
<glyph unicode="&#xe913;" glyph-name="angel-smiley" d="M512 745.984c-125.653 0-220.459 45.867-220.459 106.667s94.763 106.667 220.459 106.667 220.459-45.867 220.459-106.667c-0.043-60.757-94.848-106.667-220.459-106.667zM512 619.349c-188.203 0-341.333-153.131-341.333-341.333s153.131-341.333 341.333-341.333c188.203 0 341.333 153.131 341.333 341.333s-153.173 341.333-341.333 341.333zM384 458.837c47.061 0 85.333-38.272 85.333-85.333 0-11.776-9.557-21.333-21.333-21.333s-21.333 9.557-21.333 21.333c0 23.552-19.157 42.667-42.667 42.667s-42.667-19.115-42.667-42.667c0-11.776-9.557-21.333-21.333-21.333s-21.333 9.557-21.333 21.333c0 47.019 38.229 85.333 85.333 85.333zM512 64.683c-117.632 0-213.333 95.701-213.333 213.333 0 11.733 9.557 21.333 21.333 21.333s21.333-9.6 21.333-21.333c0-94.123 76.544-170.667 170.667-170.667s170.667 76.544 170.667 170.667c0 11.733 9.557 21.333 21.333 21.333 11.733 0 21.333-9.6 21.333-21.333 0-117.632-95.744-213.333-213.333-213.333zM704 352.171c-11.776 0-21.333 9.557-21.333 21.333 0 23.552-19.157 42.667-42.667 42.667s-42.667-19.115-42.667-42.667c0-11.776-9.6-21.333-21.333-21.333-11.776 0-21.333 9.557-21.333 21.333 0 47.061 38.229 85.333 85.333 85.333 47.061 0 85.333-38.272 85.333-85.333 0-11.776-9.6-21.333-21.333-21.333zM969.088 331.435c-3.499-2.176-7.339-3.243-11.221-3.243-7.125 0-14.123 3.584-18.176 10.112-6.229 10.027-3.115 23.125 6.912 29.355 16 9.856 47.445 32.469 75.563 53.333 0.555 9.259 1.749 18.304 1.749 27.648 0 36.779-4.139 73.301-11.947 109.013-28.245-27.947-57.856-55.125-79.787-71.125-3.797-2.731-8.149-4.139-12.587-4.139-6.571 0-13.099 3.029-17.237 8.747-6.912 9.515-4.907 22.869 4.608 29.824 24.107 17.664 60.288 51.797 91.947 84.139-12.501 38.528-29.355 75.776-50.773 110.763-7.808 12.629-28.629 12.629-36.395 0-37.333-60.843-87.723-111.488-146.901-149.632 80.128-70.4 131.072-173.355 131.072-288.213 0-95.787-35.499-183.253-93.653-250.581 111.403 77.056 190.251 197.291 213.717 336.128-18.645-13.397-35.883-25.387-46.891-32.128zM259.115 566.229c-59.221 38.229-109.611 88.832-146.944 149.632-3.883 6.272-10.752 10.155-18.176 10.155s-14.293-3.883-18.176-10.155c-21.376-34.816-38.144-71.893-50.603-110.208 32.213-33.024 67.456-66.688 88.917-82.56 9.472-7.040 11.435-20.395 4.437-29.824-4.181-5.675-10.624-8.661-17.152-8.661-4.437 0-8.875 1.365-12.672 4.224-19.797 14.677-48.427 41.216-76.587 69.333-7.936-35.883-12.117-72.491-12.117-109.397 0-7.808 1.067-15.275 1.451-23.040 29.781-24.021 61.483-48.981 75.904-57.899 10.027-6.187 13.099-19.371 6.912-29.355-4.053-6.528-11.008-10.112-18.176-10.112-3.84 0-7.723 0.981-11.221 3.2-10.453 6.4-27.52 19.243-47.403 34.816 22.827-139.989 102.016-261.333 214.229-338.816-58.197 67.285-93.653 154.752-93.653 250.581-0.085 114.688 50.816 217.685 131.029 288.085z" />
<glyph unicode="&#xe914;" glyph-name="angry" d="M768 554.667c0-35.349-28.651-64-64-64s-64 28.651-64 64c0 35.349 28.651 64 64 64s64-28.651 64-64zM384 554.667c0-35.349-28.651-64-64-64s-64 28.651-64 64c0 35.349 28.651 64 64 64s64-28.651 64-64zM512 960c-282.325 0-512-229.675-512-512s229.675-512 512-512 512 229.675 512 512-229.675 512-512 512zM587.733 723.072l170.667 85.333c10.581 5.248 23.339 0.939 28.672-9.6 5.248-10.539 0.939-23.339-9.6-28.629l-170.667-85.333c-3.072-1.493-6.315-2.219-9.472-2.219-7.893 0-15.36 4.309-19.157 11.776-5.163 10.581-0.939 23.381 9.557 28.672zM236.928 798.891c5.291 10.539 18.091 14.805 28.629 9.557l170.667-85.333c10.539-5.291 14.805-18.091 9.557-28.629-3.755-7.424-11.264-11.776-19.115-11.776-3.2 0-6.443 0.725-9.515 2.261l-170.667 85.333c-10.581 5.205-14.848 18.048-9.557 28.587zM320 661.333c58.795 0 106.667-47.872 106.667-106.667s-47.872-106.667-106.667-106.667-106.667 47.872-106.667 106.667 47.872 106.667 106.667 106.667zM800.597 155.221c-8.832-7.68-22.357-6.699-30.080 2.219-64.896 75.307-159.147 118.4-258.517 118.4-99.669 0-194.133-43.435-259.115-119.083-4.224-4.907-10.197-7.424-16.171-7.424-4.949 0-9.856 1.707-13.909 5.163-8.917 7.68-9.941 21.163-2.304 30.080 73.088 85.163 179.371 133.973 291.499 133.973 111.787 0 217.771-48.555 290.816-133.205 7.723-8.96 6.699-22.443-2.219-30.123zM704 448c-58.795 0-106.667 47.872-106.667 106.667s47.872 106.667 106.667 106.667 106.667-47.872 106.667-106.667-47.872-106.667-106.667-106.667z" />
<glyph unicode="&#xe915;" glyph-name="apple" d="M723.157 784.469c-51.84 0-86.997-26.539-118.101-49.963-23.509-17.749-44.757-33.067-71.467-38.827-0.469 22.315-1.579 42.795-3.413 61.355 57.045 1.92 198.187 61.483 218.112 149.419 2.389 10.539-3.499 28.885-13.696 32.469-20.864 7.381-41.301 10.069-60.629 10.069-90.411 0-137.173-77.952-156.501-122.539-22.229 73.813-69.035 101.077-154.112 101.077-11.776 0-21.333-9.557-21.333-21.333s9.557-21.333 21.333-21.333c83.157 0 124.203-19.627 127.659-189.355-27.008 5.632-48.427 20.992-72.149 38.869-31.061 23.509-66.261 50.048-118.059 50.048-152.32 0-281.003-168.917-281.003-368.896 0-199.253 134.912-363.435 261.163-450.645 17.152-11.861 36.992-17.877 59.008-17.877 43.136 0 87.125 23.125 122.453 41.728 19.115 10.069 40.789 21.461 49.579 21.461 12.587 0 35.584-12.117 57.813-23.851 34.901-18.475 74.581-39.339 114.987-39.339 21.419 0 41.003 6.016 58.155 17.877 126.251 87.211 261.205 251.392 261.205 450.645 0 200.021-128.725 368.939-281.003 368.939z" />
<glyph unicode="&#xe916;" glyph-name="apple-bite" d="M539.733 746.709c0.853 0 1.621 0.043 2.432 0.128 54.741 6.315 195.115 70.699 207.147 161.493 1.408 10.752-5.419 20.821-15.915 23.509-16.128 4.139-31.915 6.187-46.933 6.187-108.373 0-157.141-108.629-167.808-166.059-1.237-6.656 0.768-13.483 5.376-18.517 4.181-4.267 9.856-6.741 15.701-6.741zM966.869 229.376c-28.629 22.827-45.056 56.405-45.056 92.117 0 21.077 5.76 41.344 17.109 60.331 3.755 6.229 4.053 13.995 0.811 20.437-3.243 6.528-9.6 10.965-16.853 11.691-60.331 6.4-105.813 56.704-105.813 116.949 0 42.24 23.296 81.579 60.757 102.656 7.723 4.309 11.563 15.488 10.325 24.192-0.597 4.267-1.237 8.363-1.237 12.715 0 17.792 4.395 35.456 12.971 52.523 4.608 9.301 1.963 20.565-6.443 26.795-97.835 71.723-226.475 58.923-350.891-37.632-50.219 55.040-112.085 83.968-180.181 83.968-148.181 0-313.301-151.765-313.301-369.579 0-199.253 134.443-363.435 260.352-450.645 17.323-12.032 34.731-17.877 53.205-17.877 28.715 0 53.376 14.208 79.488 29.312 28.971 16.725 58.837 33.877 97.621 33.877 38.741 0 68.608-17.28 97.493-33.963 26.112-15.104 50.773-29.355 79.488-29.355v0c18.347 0 35.669 5.803 52.949 17.792 84.608 58.453 156.672 139.093 202.752 226.901 4.779 9.259 2.475 20.48-5.547 26.795z" />
<glyph unicode="&#xe917;" glyph-name="argentina" d="M576 554.667c0-35.349-28.651-64-64-64s-64 28.651-64 64c0 35.349 28.651 64 64 64s64-28.651 64-64zM42.667 362.667v42.667h981.333v298.667h-981.333v42.667h981.333v149.333c0 11.776-9.6 21.333-21.333 21.333h-960c0 11.776-9.557 21.333-21.333 21.333s-21.333-9.557-21.333-21.333v-938.667c0-11.733 9.557-21.333 21.333-21.333s21.333 9.6 21.333 21.333v213.333h960c11.733 0 21.333 9.6 21.333 21.333v149.333h-981.333zM512 661.333c58.795 0 106.667-47.872 106.667-106.667s-47.872-106.667-106.667-106.667-106.667 47.872-106.667 106.667 47.872 106.667 106.667 106.667z" />
<glyph unicode="&#xe918;" glyph-name="arrow-around" d="M1007.147 431.104l-90.923 86.955c-7.68 7.253-17.408 11.008-27.392 11.52 16.939 10.027 25.856 30.165 19.413 49.621-56.704 170.069-215.552 284.373-395.264 284.373-211.285 0-385.92-157.952-412.501-361.685l-25.387 23.168c-17.408 15.872-44.416 14.677-60.288-2.731-15.915-17.365-14.677-44.373 2.731-60.245l92.928-84.821c7.552-6.912 17.067-10.325 26.709-10.837-17.067-9.856-25.941-30.165-19.456-49.579 56.704-170.069 215.552-284.416 395.307-284.416 210.389 0 384.384 156.672 412.16 359.168l23.168-22.144c8.192-7.893 18.816-11.776 29.397-11.776 11.264 0 22.485 4.395 30.933 13.184 16.171 16.939 15.531 43.989-1.536 60.245zM512.981 117.675c-142.976 0-269.269 90.88-314.325 226.091-5.589 16.683-20.48 27.563-36.992 29.013 0.64 0.341 1.323 0.555 1.92 0.896l103.339 71.851c19.371 13.44 24.107 40.021 10.667 59.392-13.44 19.328-40.021 24.107-59.392 10.709l-32.896-22.955c22.016 160.981 160.384 285.525 327.723 285.525 142.933 0 269.269-90.837 314.325-226.005 5.547-16.64 20.437-27.563 36.821-28.971-0.256-0.213-0.683-0.213-0.939-0.427l-104.917-69.419c-19.669-13.013-25.045-39.467-12.032-59.136 13.013-19.712 39.467-25.003 59.179-12.075l35.669 23.68c-20.864-162.261-159.957-288.171-328.149-288.171zM512.981 593.237c-80.128 0-145.323-65.195-145.323-145.28 0-80.128 65.195-145.28 145.323-145.28 80.085 0 145.323 65.152 145.323 145.28-0.043 80.085-65.237 145.28-145.323 145.28zM512.981 388.011c-33.067 0-59.989 26.837-59.989 59.947 0 33.067 26.88 59.947 59.989 59.947s59.989-26.88 59.989-59.947c-0.043-33.024-26.923-59.947-59.989-59.947z" />
<glyph unicode="&#xe919;" glyph-name="arrow-back" d="M293.504 448l244.821 448.896c11.349 20.651 3.669 46.549-16.981 57.856-20.651 11.264-46.592 3.627-57.856-17.024l-256-469.333c-6.955-12.715-6.955-28.16 0-40.832l256-469.333c7.765-14.208 22.357-22.229 37.504-22.229 6.912 0 13.909 1.664 20.395 5.248 20.693 11.307 28.331 37.163 17.024 57.813l-244.907 448.939zM779.093 490.667h-384c-23.552 0-42.667-19.115-42.667-42.667 0-23.509 19.115-42.667 42.667-42.667h384c23.552 0 42.667 19.157 42.667 42.667 0 23.552-19.115 42.667-42.667 42.667z" />
<glyph unicode="&#xe91a;" glyph-name="arrow-back-2" d="M877.44-64h-243.627c-10.709 0-21.035 4.096-28.928 11.349l-487.253 448.853c-8.533 7.893-13.483 18.859-13.739 30.464-0.256 11.563 4.224 22.784 12.416 31.019l487.253 489.728c8.021 8.064 18.859 12.587 30.251 12.587h243.627c17.195 0 32.811-10.368 39.381-26.283s2.987-34.261-9.131-46.464l-456.021-458.325 454.656-418.901c12.928-11.861 17.237-30.507 10.837-46.891-6.315-16.384-22.059-27.136-39.723-27.136zM650.496 21.333h117.675l-406.869 374.869c-8.533 7.893-13.483 18.859-13.739 30.464-0.256 11.563 4.224 22.784 12.416 31.019l414.933 416.981h-123.307l-443.477-445.739 442.368-407.595z" />
<glyph unicode="&#xe91b;" glyph-name="arrow-back-3" d="M633.003 957.525c-16.981 6.059-35.925 0.768-47.317-13.184l-384-469.333c-12.843-15.701-12.843-38.315 0-54.016l384-469.333c8.235-10.112 20.437-15.659 32.981-15.659 4.736 0 9.685 0.853 14.336 2.475 16.981 6.016 28.331 22.187 28.331 40.192v938.667c0 18.048-11.349 34.133-28.331 40.192zM576 98.176l-286.208 349.824 286.208 349.781v-699.605zM789.333 960c-23.552 0-42.667-19.115-42.667-42.667v-938.667c0-23.552 19.115-42.667 42.667-42.667s42.667 19.115 42.667 42.667v938.667c0 23.552-19.115 42.667-42.667 42.667z" />
<glyph unicode="&#xe91c;" glyph-name="arrow-barrier" d="M1024.128 554.795v85.333h-128v81.92l37.333-29.909c7.893-6.315 17.28-9.344 26.624-9.344 12.501 0 24.917 5.461 33.323 16 14.72 18.389 11.691 45.227-6.656 59.947l-106.667 85.333c-1.92 1.536-4.181 2.347-6.315 3.499-1.664 0.939-3.157 2.091-4.992 2.773-9.899 3.84-20.736 3.84-30.677 0-1.749-0.725-3.328-1.835-4.992-2.773-2.176-1.152-4.437-1.963-6.315-3.499l-106.667-85.333c-18.432-14.763-21.419-41.6-6.656-59.947 14.72-18.432 41.643-21.376 59.947-6.656l37.333 29.909v-81.92h-256v81.92l37.333-29.909c7.893-6.315 17.28-9.344 26.624-9.344 12.501 0 24.917 5.461 33.323 16 14.72 18.389 11.733 45.227-6.656 59.947l-106.667 85.333c-1.92 1.536-4.181 2.347-6.272 3.499-1.707 0.939-3.2 2.091-5.035 2.773-9.899 3.84-20.736 3.84-30.635 0-1.792-0.725-3.371-1.835-5.035-2.773-2.133-1.152-4.395-1.963-6.315-3.499l-106.667-85.333c-18.517-14.805-21.419-41.643-6.699-59.989 14.677-18.432 41.6-21.376 59.947-6.656l37.333 29.952v-81.92h-256v81.92l37.333-29.909c7.851-6.315 17.28-9.344 26.624-9.344 12.501 0 24.917 5.461 33.323 16 14.72 18.389 11.733 45.227-6.656 59.947l-106.667 85.333c-1.92 1.493-4.224 2.304-6.315 3.456-1.707 0.939-3.243 2.091-5.077 2.773-9.899 3.84-20.736 3.84-30.635 0-1.749-0.725-3.328-1.835-5.035-2.773-2.133-1.152-4.395-1.963-6.315-3.499l-106.667-85.333c-18.432-14.763-21.333-41.6-6.613-59.947 14.677-18.432 41.6-21.376 59.947-6.656l37.333 29.909v-81.92h-128v-85.333h128v-341.333h-128v-85.333h128v-42.667c0-23.552 19.115-42.667 42.667-42.667s42.667 19.115 42.667 42.667v42.667h256v-42.667c0-23.552 19.115-42.667 42.667-42.667 23.509 0 42.667 19.115 42.667 42.667v42.667h256v-42.667c0-23.552 19.072-42.667 42.667-42.667 23.552 0 42.667 19.115 42.667 42.667v42.667h128v85.333h-128v341.333h128.213zM213.461 213.461v341.333h256v-341.333h-256zM810.795 213.461h-256v341.333h256v-341.333z" />
<glyph unicode="&#xe91d;" glyph-name="arrow-circle" d="M559.403 910.976c-223.872 0-411.093-158.464-454.955-368.683l-31.36 31.872c-16.555 16.811-43.563 16.939-60.373 0.469s-16.981-43.563-0.469-60.373l83.413-84.693c9.813-246.741 213.76-444.544 463.787-444.544 256.171 0 464.64 207.744 464.64 463.019-0.043 255.232-208.512 462.933-464.683 462.933zM559.403 70.315c-201.813 0-366.891 157.867-378.283 355.925l91.819 62.976c19.413 13.355 24.363 39.936 11.008 59.349s-39.893 24.405-59.307 11.008l-33.664-23.083c40.192 165.547 189.867 289.024 368.341 289.024 209.067 0 379.307-169.429 379.307-377.643s-170.027-377.557-379.221-377.557z" />
<glyph unicode="&#xe91e;" glyph-name="arrow-cross" d="M993.792 473.856l-81.621 106.667c-14.293 18.731-41.088 22.272-59.819 8.021-18.688-14.336-22.229-41.088-7.979-59.819l29.141-38.059h-320.725v298.965l39.936-30.464c18.688-14.336 45.44-10.795 59.776 7.936 14.293 18.731 10.752 45.483-7.979 59.776l-106.667 81.621c-15.275 11.733-36.523 11.733-51.84 0l-106.667-81.621c-18.688-14.293-22.272-41.045-7.936-59.776 8.405-10.965 21.077-16.768 33.92-16.768 9.045 0 18.133 2.859 25.899 8.832l36.309 27.733v-296.235h-317.184l29.141 38.101c14.293 18.688 10.752 45.483-7.979 59.819-18.688 14.251-45.483 10.709-59.776-8.064l-81.621-106.667c-11.648-15.275-11.648-36.48 0-51.84l81.621-106.667c14.293-18.688 41.088-22.229 59.776-7.979 11.008 8.405 16.768 21.077 16.768 33.92 0 9.003-2.816 18.176-8.789 25.856l-29.141 38.187h317.184v-296.277l-36.309 27.776c-18.731 14.336-45.483 10.752-59.819-7.979s-10.752-45.44 7.936-59.776l106.667-81.579c7.68-5.888 16.811-8.832 25.941-8.832s18.261 2.944 25.856 8.832l106.667 81.579c18.731 14.336 22.272 41.088 8.021 59.776-14.336 18.688-41.088 22.272-59.819 7.979l-39.893-30.507v299.008h320.768l-29.141-38.144c-14.293-18.688-10.752-45.44 7.979-59.776s45.483-10.752 59.819 7.979l81.621 106.667c5.845 7.637 8.789 16.811 8.789 25.941s-2.901 18.261-8.832 25.856z" />
<glyph unicode="&#xe91f;" glyph-name="arrow-down" d="M512.043 277.333c-7.040 0-14.080 1.835-20.437 5.248l-469.333 256c-20.693 11.307-28.331 37.205-17.024 57.856s37.205 28.288 57.856 17.024l448.896-244.864 448.896 244.864c20.608 11.264 46.592 3.627 57.813-17.024 11.349-20.693 3.669-46.592-16.981-57.856l-469.333-256c-6.272-3.413-13.269-5.248-20.352-5.248z" />
<glyph unicode="&#xe920;" glyph-name="arrow-down-2" d="M1018.752 511.104c11.349-20.693 3.669-46.592-16.981-57.856l-469.333-256c-6.357-3.456-13.397-5.205-20.437-5.205s-14.080 1.792-20.437 5.205l-469.333 256c-20.693 11.307-28.331 37.205-17.024 57.856s37.163 28.331 57.899 17.024l448.896-244.864 448.896 244.864c20.779 11.264 46.592 3.627 57.856-17.024zM22.229 623.872l469.333-256c6.357-3.456 13.397-5.205 20.437-5.205s14.080 1.792 20.437 5.205l469.333 256c20.693 11.307 28.331 37.205 17.024 57.856-11.349 20.693-37.163 28.288-57.899 17.024l-448.896-244.864-448.896 244.864c-20.693 11.264-46.549 3.627-57.856-17.024s-3.669-46.549 16.981-57.856z" />
<glyph unicode="&#xe921;" glyph-name="arrow-down-3" d="M980.907 597.333h-938.667c-18.048 0-34.133-11.349-40.192-28.331-6.059-16.939-0.811-35.925 13.184-47.36l469.333-384c7.851-6.443 17.451-9.685 27.008-9.685s19.157 3.2 27.008 9.685l469.333 384c13.909 11.435 19.243 30.379 13.184 47.36s-22.187 28.331-40.192 28.331zM511.573 225.792l-349.824 286.208h699.605l-349.781-286.208zM43.136 682.667h938.667c23.552 0 42.667 19.115 42.667 42.667s-19.115 42.667-42.667 42.667h-938.667c-23.552 0-42.667-19.115-42.667-42.667s19.115-42.667 42.667-42.667z" />
<glyph unicode="&#xe922;" glyph-name="arrow-down-in-circle" d="M847.744 533.163c-11.648 20.437-37.76 27.563-58.197 15.872l-277.504-158.549-277.504 158.549c-20.437 11.691-46.507 4.565-58.197-15.872s-4.565-46.507 15.872-58.197l298.667-170.667c6.571-3.755 13.867-5.675 21.163-5.675s14.592 1.92 21.163 5.675l298.667 170.667c20.48 11.648 27.563 37.76 15.872 58.197zM512 960c-282.752 0-512-229.248-512-512 0-282.709 229.248-512 512-512s512 229.291 512 512c0 282.752-229.248 512-512 512zM512 21.333c-235.264 0-426.667 191.403-426.667 426.667s191.403 426.667 426.667 426.667c235.264 0 426.667-191.403 426.667-426.667s-191.403-426.667-426.667-426.667z" />
<glyph unicode="&#xe923;" glyph-name="arrow-fork" d="M773.333 865.408l-106.667 85.333c-2.005 1.579-4.309 2.347-6.357 3.499-1.664 0.939-3.157 2.048-4.949 2.773-9.899 3.84-20.736 3.84-30.677 0-1.835-0.725-3.328-1.835-4.992-2.773-2.091-1.152-4.437-1.92-6.315-3.499l-106.667-85.333c-18.389-14.763-21.376-41.6-6.656-59.947 14.72-18.432 41.557-21.376 59.989-6.656l37.291 29.867v-273.877c0-50.261-40.661-96-85.333-96s-85.333 45.739-85.333 96v188.544l37.333-29.867c7.893-6.315 17.28-9.344 26.624-9.344 12.544 0 24.917 5.461 33.365 16 14.763 18.389 11.733 45.227-6.656 59.947l-106.667 85.333c-15.573 12.459-37.76 12.459-53.333 0l-106.667-85.333c-18.389-14.763-21.333-41.6-6.613-59.947 14.72-18.432 41.557-21.419 59.989-6.656l37.291 29.867v-188.544c0-80.981 56.277-152.875 128-174.293v-401.664c0-23.595 19.115-42.667 42.667-42.667s42.667 19.072 42.667 42.667v401.664c71.765 21.333 128 93.355 128 174.293v273.877l37.333-29.867c7.936-6.315 17.28-9.344 26.667-9.344 12.501 0 24.917 5.461 33.323 16 14.677 18.347 11.733 45.184-6.656 59.947z" />
<glyph unicode="&#xe924;" glyph-name="arrow-forward" d="M836.992 427.605l-256-469.333c-7.808-14.165-22.357-22.229-37.504-22.229-6.912 0-13.952 1.664-20.437 5.205-20.693 11.349-28.331 37.205-17.024 57.813l244.907 448.939-244.864 448.896c-11.307 20.651-3.669 46.549 17.024 57.856 20.651 11.264 46.592 3.627 57.813-17.024l256-469.333c7.083-12.629 7.083-28.075 0.085-40.789zM651.093 448.043c0 23.552-19.115 42.667-42.667 42.667h-384c-23.552 0-42.667-19.115-42.667-42.667s19.115-42.667 42.667-42.667h384c23.552 0 42.667 19.115 42.667 42.667z" />
<glyph unicode="&#xe925;" glyph-name="arrow-forward-2" d="M907.648 457.685l-487.253 489.728c-8.021 8.064-18.901 12.587-30.251 12.587h-243.627c-17.237 0-32.811-10.368-39.381-26.283-6.613-15.915-2.987-34.261 9.131-46.464l456.021-458.325-454.656-418.944c-12.928-11.861-17.237-30.507-10.837-46.891 6.4-16.299 22.187-27.093 39.808-27.093h243.627c10.709 0 21.035 4.053 28.928 11.307l487.253 448.896c8.491 7.936 13.44 18.901 13.696 30.507 0.213 11.52-4.267 22.741-12.459 30.976zM373.461 21.333h-117.675l406.912 374.869c8.533 7.893 13.44 18.859 13.696 30.464 0.256 11.563-4.224 22.784-12.416 31.019l-414.848 416.981h123.264l443.477-445.739-442.411-407.595z" />
<glyph unicode="&#xe926;" glyph-name="arrow-from" d="M981.333 309.291h-768v106.667c0 57.771 59.051 64 84.437 64h465.877l-29.867-37.333c-14.763-18.475-11.733-45.312 6.656-59.947 7.893-6.315 17.237-9.387 26.581-9.387 12.587 0 24.917 5.461 33.408 16l81.835 102.357c8.32 7.808 13.653 18.688 13.653 30.976s-5.333 23.168-13.653 30.976l-81.835 102.4c-14.763 18.347-41.6 21.376-59.989 6.613s-21.376-41.6-6.656-59.947l29.909-37.333h-465.92c-101.547 0-169.771-60.032-169.771-149.333v-106.667h-85.333c-23.552 0-42.667-19.115-42.667-42.667s19.115-42.667 42.667-42.667h938.667c23.552 0 42.667 19.115 42.667 42.667 0 23.509-19.157 42.624-42.667 42.624z" />
<glyph unicode="&#xe927;" glyph-name="arrow-inside" d="M981.333 896h-768c-23.552 0-42.667-19.115-42.667-42.667v-213.333h-128c-23.552 0-42.667-19.115-42.667-42.667s19.115-42.667 42.667-42.667h128v-213.333h-128c-23.552 0-42.667-19.115-42.667-42.667s19.115-42.667 42.667-42.667h128v-213.333c0-23.552 19.115-42.667 42.667-42.667h768c23.552 0 42.667 19.115 42.667 42.667v810.667c0 23.552-19.115 42.667-42.667 42.667zM938.667 85.333h-682.667v170.667h336.981l-29.867-37.333c-14.72-18.432-11.733-45.269 6.613-59.989 7.936-6.315 17.323-9.344 26.709-9.344 12.501 0 24.917 5.461 33.323 16l81.877 102.315c8.32 7.851 13.653 18.688 13.653 31.019s-5.333 23.168-13.653 31.019l-81.877 102.357c-14.677 18.347-41.6 21.376-59.989 6.613s-21.333-41.6-6.613-59.947l29.867-37.333h-337.024v213.333h336.981l-29.867-37.333c-14.72-18.432-11.733-45.269 6.613-59.989 7.936-6.315 17.28-9.344 26.667-9.344 12.501 0 24.917 5.461 33.323 16l81.877 102.357c8.32 7.808 13.653 18.688 13.653 30.976s-5.333 23.168-13.653 30.976l-81.877 102.4c-14.677 18.347-41.6 21.376-59.989 6.613s-21.333-41.6-6.613-59.947l29.867-37.333h-336.981v170.667h682.667v-725.419z" />
<glyph unicode="&#xe928;" glyph-name="arrow-inside-45" d="M971.179 917.333h-682.667c-23.552 0-42.667-19.115-42.667-42.667v-322.816l-223.104-223.061c-16.683-16.725-16.683-43.648 0-60.331 8.32-8.277 19.243-12.459 30.165-12.459s21.845 4.224 30.165 12.501l162.731 162.688v-220.629l-95.104-95.104c-16.683-16.725-16.683-43.648 0-60.331 8.32-8.277 19.243-12.459 30.165-12.459s21.845 4.224 30.165 12.501l34.731 34.688v-68.523c0-23.595 19.115-42.667 42.667-42.667h682.667c23.595 0 42.667 19.072 42.667 42.667v853.333c0.085 23.552-19.029 42.667-42.581 42.667zM928.512 64h-597.333v111.189l258.816 258.731c5.845-16.597 21.248-28.587 39.851-28.587 23.595 0 42.667 19.072 42.667 42.667v85.333c0 23.552-19.072 42.667-42.667 42.667h-85.333c-23.509 0-42.667-19.115-42.667-42.667 0-18.091 11.349-33.365 27.264-39.552l-197.931-197.931v220.672l130.816 130.731c5.845-16.597 21.248-28.629 39.851-28.629 23.552 0 42.667 19.115 42.667 42.667v85.333c0 23.552-19.115 42.667-42.667 42.667h-85.333c-23.552 0-42.667-19.115-42.667-42.667 0-18.091 11.349-33.365 27.264-39.552l-69.931-69.931v194.859h597.333v-768z" />
<glyph unicode="&#xe929;" glyph-name="arrow-inside-gap" d="M421.333 225.323l-37.333-29.909v721.92c0 23.552-19.115 42.667-42.667 42.667s-42.667-19.115-42.667-42.667v-721.835l-37.333 29.909c-18.432 14.763-45.269 11.648-59.989-6.656-14.72-18.432-11.733-45.269 6.656-59.947l106.667-85.376c1.963-1.579 4.267-2.347 6.357-3.541 1.664-0.896 3.157-2.048 4.992-2.773 4.949-1.877 10.069-3.072 15.317-3.072 5.205 0 10.368 1.195 15.275 3.029 1.835 0.768 3.328 1.835 5.035 2.773 2.133 1.109 4.395 1.963 6.315 3.499l106.667 85.333c18.389 14.72 21.376 41.557 6.656 59.947-14.677 18.475-41.515 21.461-59.947 6.699zM720 225.323l-37.333-29.909v721.92c0 23.552-19.115 42.667-42.667 42.667s-42.667-19.115-42.667-42.667v-721.835l-37.333 29.909c-18.432 14.763-45.269 11.648-59.989-6.656-14.72-18.432-11.733-45.269 6.656-59.947l106.667-85.376c1.963-1.579 4.267-2.347 6.315-3.541 1.664-0.896 3.157-2.048 4.992-2.773 4.992-1.835 10.069-3.029 15.317-3.029 5.205 0 10.368 1.195 15.232 3.029 1.835 0.768 3.328 1.835 5.077 2.773 2.091 1.109 4.395 1.963 6.272 3.499l106.667 85.333c18.389 14.72 21.376 41.557 6.613 59.947-14.549 18.432-41.387 21.419-59.819 6.656zM128 533.333h-128c-23.552 0-42.667-19.115-42.667-42.667s19.115-42.667 42.667-42.667h85.333v-469.333c0-23.552 19.115-42.667 42.667-42.667s42.667 19.115 42.667 42.667v512c0 23.552-19.115 42.667-42.667 42.667zM1024 533.333h-170.667c-23.552 0-42.667-19.115-42.667-42.667v-512c0-23.552 19.115-42.667 42.667-42.667s42.667 19.115 42.667 42.667v469.333h128c23.552 0 42.667 19.115 42.667 42.667s-19.115 42.667-42.667 42.667z" />
<glyph unicode="&#xe92a;" glyph-name="arrow-inside-gap-45" d="M755.883 856.021l-150.613-212.011c-5.205-7.211-7.936-15.872-7.936-24.704v-127.744l-37.333 29.909c-18.432 14.677-45.269 11.691-59.989-6.656-14.72-18.432-11.733-45.269 6.656-59.989l106.667-85.333c7.851-6.229 17.237-9.387 26.667-9.387s18.816 3.115 26.667 9.387l106.667 85.333c18.432 14.72 21.376 41.557 6.656 59.947-14.763 18.432-41.6 21.419-59.989 6.699l-37.333-29.909v114.091l142.848 200.917c13.568 19.2 9.088 45.824-10.069 59.477s-45.909 9.259-59.563-10.027zM85.333 619.349h-85.333c-23.552 0-42.667-19.115-42.667-42.667s19.115-42.667 42.667-42.667h42.667v-469.333c0-23.552 19.115-42.667 42.667-42.667s42.667 19.115 42.667 42.667v512c0 23.509-19.115 42.667-42.667 42.667zM1024 619.349h-128c-23.552 0-42.667-19.115-42.667-42.667v-512c0-23.552 19.115-42.667 42.667-42.667s42.667 19.115 42.667 42.667v469.333h85.333c23.552 0 42.667 19.115 42.667 42.667s-19.115 42.667-42.667 42.667zM421.333 521.472l-37.333-29.909v114.091l142.805 200.917c13.611 19.2 9.088 45.824-10.069 59.477-19.2 13.653-45.867 9.173-59.52-10.069l-150.613-212.011c-5.163-7.211-7.936-15.872-7.936-24.704v-127.744l-37.333 29.909c-18.432 14.677-45.312 11.691-59.989-6.656-14.72-18.432-11.733-45.269 6.656-59.989l106.667-85.376c7.851-6.187 17.237-9.344 26.667-9.344s18.859 3.115 26.667 9.344l106.667 85.333c18.389 14.72 21.376 41.557 6.656 59.947-14.72 18.517-41.557 21.504-59.989 6.784z" />
<glyph unicode="&#xe92b;" glyph-name="arrow-into" d="M730.667 436.053c18.432 14.72 21.376 41.557 6.656 59.989-14.677 18.347-41.643 21.376-59.947 6.613l-37.333-29.909v17.92c0 89.301-68.949 149.333-171.563 149.333h-425.813c-23.552 0-42.667-19.115-42.667-42.667s19.115-42.667 42.667-42.667h425.771c20.224 0 86.229-4.651 86.229-64v-17.92l-37.333 29.909c-18.389 14.763-45.269 11.776-59.947-6.613-14.72-18.432-11.691-45.269 6.656-59.989l106.667-85.333c7.808-6.229 17.195-9.387 26.667-9.387s18.859 3.115 26.667 9.387l106.624 85.333zM981.333 341.376h-938.667c-23.552 0-42.667-19.115-42.667-42.667s19.115-42.667 42.667-42.667h938.667c23.552 0 42.667 19.115 42.667 42.667s-19.115 42.667-42.667 42.667z" />
<glyph unicode="&#xe92c;" glyph-name="arrow-join" d="M1004.459 473.429l-83.584 112.341c-14.037 18.901-40.747 22.827-59.691 8.789-18.901-14.080-22.827-40.789-8.747-59.691l32.896-44.203h-231.083c-15.829 77.995-69.077 128-143.104 128h-457.344c-23.552 0-42.667-19.115-42.667-42.667s19.115-42.667 42.667-42.667h457.344c53.717 0 61.909-58.795 62.976-85.333-1.024-26.581-9.259-85.333-62.976-85.333h-457.344c-23.552 0-42.667-19.115-42.667-42.667s19.115-42.667 42.667-42.667h457.344c74.027 0 127.275 50.005 143.104 128h231.083l-32.896-44.203c-14.080-18.859-10.155-45.611 8.747-59.691 7.68-5.675 16.597-8.363 25.429-8.363 13.099 0 25.899 5.973 34.304 17.195l83.584 112.341c11.179 14.976 11.179 35.669-0.043 50.816z" />
<glyph unicode="&#xe92d;" glyph-name="arrow-junction" d="M853.76 746.624c0 12.288-5.333 23.168-13.653 30.976l-81.877 102.4c-14.72 18.347-41.6 21.376-59.947 6.613-18.432-14.763-21.419-41.6-6.656-59.947l29.781-37.333h-166.315v128c0 23.552-19.115 42.667-42.667 42.667s-42.667-19.115-42.667-42.667v-128h-128c-23.552 0-42.667-19.115-42.667-42.667s19.115-42.667 42.667-42.667h128v-170.667h-168.064l29.867 37.333c14.72 18.389 11.733 45.227-6.699 59.947-18.347 14.763-45.227 11.776-59.947-6.613l-85.333-106.667c-12.459-15.616-12.459-37.803 0-53.333l85.333-106.667c8.405-10.539 20.821-16 33.323-16 9.344 0 18.773 2.987 26.624 9.344 18.432 14.763 21.419 41.6 6.699 59.989l-29.867 37.333h168.064v-469.333c0-23.552 19.115-42.667 42.667-42.667s42.667 19.115 42.667 42.667v469.333h128c23.552 0 42.667 19.115 42.667 42.667s-19.115 42.667-42.667 42.667h-128v170.667h166.315l-29.867-37.333c-14.72-18.432-11.733-45.269 6.613-59.989 7.936-6.315 17.323-9.344 26.667-9.344 12.501 0 24.917 5.461 33.323 16l81.877 102.357c8.405 7.808 13.739 18.645 13.739 30.933z" />
<glyph unicode="&#xe92e;" glyph-name="arrow-left" d="M640.085-64c-15.104 0-29.739 8.021-37.504 22.229l-256 469.333c-6.955 12.672-6.955 28.075 0 40.832l256 469.333c11.307 20.651 37.163 28.331 57.813 17.024s28.331-37.205 16.981-57.856l-244.779-448.896 244.821-448.896c11.349-20.651 3.669-46.592-16.981-57.813-6.443-3.627-13.44-5.291-20.352-5.291z" />
<glyph unicode="&#xe92f;" glyph-name="arrow-left-2" d="M592.085-0.896c11.349-20.651 3.669-46.592-16.981-57.813-6.485-3.541-13.483-5.205-20.437-5.205-15.104 0-29.696 8.021-37.461 22.229l-256 469.333c-6.955 12.672-6.955 28.075 0 40.832l256 469.333c11.307 20.651 37.163 28.331 57.899 17.024 20.693-11.307 28.331-37.205 16.981-57.856l-244.821-448.939 244.821-448.939zM517.973 448l244.864 448.896c11.307 20.651 3.669 46.549-17.024 57.856-20.693 11.264-46.592 3.627-57.856-17.024l-256-469.333c-6.955-12.757-6.955-28.16 0-40.832l256-469.333c7.723-14.251 22.315-22.229 37.461-22.229 6.912 0 13.867 1.664 20.395 5.205 20.693 11.307 28.331 37.205 17.024 57.856l-244.864 448.939z" />
<glyph unicode="&#xe930;" glyph-name="arrow-left-in-circle" d="M597.205 783.701c-20.437 11.691-46.507 4.565-58.197-15.872l-170.667-298.667c-7.509-13.099-7.509-29.184 0-42.325l170.667-298.667c7.893-13.781 22.272-21.504 37.077-21.504 7.168 0 14.507 1.792 21.163 5.632 20.437 11.605 27.563 37.76 15.829 58.197l-158.507 277.504 158.507 277.504c11.691 20.437 4.608 46.507-15.872 58.197zM512 960c-282.752 0-512-229.248-512-512 0-282.709 229.248-512 512-512s512 229.291 512 512c0 282.752-229.205 512-512 512zM512 21.333c-235.264 0-426.667 191.403-426.667 426.667s191.403 426.667 426.667 426.667c235.264 0 426.667-191.403 426.667-426.667s-191.403-426.667-426.667-426.667z" />
<glyph unicode="&#xe931;" glyph-name="arrow-loop" d="M981.333 832h-128c-23.552 0-42.667-19.115-42.667-42.667s19.115-42.667 42.667-42.667h85.333v-597.333h-509.44l29.867 37.333c14.72 18.432 11.733 45.269-6.656 59.904-18.432 14.805-45.269 11.733-59.989-6.571l-85.333-106.667c-12.459-15.616-12.459-37.845 0-53.333l85.333-106.667c8.491-10.539 20.864-16 33.408-16 9.344 0 18.731 2.987 26.624 9.344 18.389 14.763 21.376 41.6 6.656 59.989l-29.867 37.333h552.064c23.595 0 42.667 19.115 42.667 42.667v682.667c0 23.552-19.115 42.667-42.667 42.667zM213.333 149.333h-128v597.333h550.315l-29.824-37.333c-14.763-18.432-11.733-45.269 6.613-59.989 7.893-6.315 17.323-9.344 26.667-9.344 12.544 0 24.917 5.461 33.365 16l81.877 102.357c8.32 7.808 13.653 18.688 13.653 30.976s-5.333 23.168-13.653 30.976l-81.877 102.4c-14.72 18.347-41.557 21.376-59.947 6.613s-21.419-41.6-6.656-59.947l29.867-37.333h-593.067c-23.552 0-42.667-19.115-42.667-42.667v-682.667c0-23.552 19.115-42.667 42.667-42.667h170.667c23.552 0 42.667 19.115 42.667 42.667 0 23.509-19.115 42.624-42.667 42.624z" />
<glyph unicode="&#xe932;" glyph-name="arrow-merge" d="M1024 447.957c0 12.288-5.333 23.168-13.653 30.976l-81.835 102.4c-14.763 18.347-41.6 21.376-59.989 6.613s-21.376-41.6-6.656-59.947l29.867-37.333h-258.133c-19.157 73.387-85.589 128-165.077 128h-22.187l-72.533 90.667c-14.72 18.347-41.557 21.376-59.989 6.613-18.389-14.763-21.376-41.6-6.656-59.947l29.867-37.333h-294.357c-23.552 0-42.667-19.115-42.667-42.667s19.115-42.667 42.667-42.667h294.357l-29.867-37.333c-14.72-18.432-11.733-45.269 6.656-59.989 7.893-6.315 17.237-9.344 26.624-9.344 12.544 0 24.917 5.461 33.365 16l72.533 90.667h22.187c47.275 0 85.717-38.315 85.717-85.333 0-47.104-38.443-85.333-85.717-85.333h-192.853l-72.533 90.667c-14.72 18.347-41.557 21.419-59.989 6.613-18.389-14.763-21.376-41.6-6.656-59.947l29.867-37.333h-123.691c-23.552 0-42.667-19.115-42.667-42.667s19.115-42.667 42.667-42.667h123.691l-29.867-37.333c-14.72-18.432-11.733-45.269 6.656-59.989 7.893-6.315 17.237-9.344 26.624-9.344 12.544 0 24.917 5.461 33.365 16l72.533 90.667h192.853c79.488 0 145.877 54.571 165.077 128h258.133l-29.909-37.333c-14.72-18.432-11.691-45.269 6.656-59.989 7.936-6.272 17.237-9.344 26.624-9.344 12.544 0 24.917 5.461 33.365 16l81.877 102.315c8.32 7.851 13.653 18.688 13.653 30.976z" />
<glyph unicode="&#xe933;" glyph-name="arrow-mix" d="M1010.688 244.267l-81.835 102.357c-14.763 18.389-41.6 21.376-59.989 6.613-18.432-14.805-21.376-41.643-6.656-59.947l29.824-37.248c-138.197 0.939-231.509 91.691-325.675 194.475 90.752 101.077 181.504 189.44 318.507 189.44h7.253l-29.909-37.333c-14.72-18.432-11.691-45.269 6.656-59.989 7.936-6.315 17.237-9.344 26.624-9.344 12.544 0 24.917 5.461 33.365 16l81.877 102.357c8.277 7.808 13.611 18.688 13.611 30.976s-5.333 23.168-13.611 30.976l-81.877 102.4c-14.763 18.347-41.6 21.376-59.989 6.613s-21.333-41.6-6.613-59.947l29.867-37.333h-7.211c-169.856 0-277.632-102.059-376.405-211.541-100.523 108.672-209.835 210.005-377.643 211.371l29.995 37.504c14.72 18.389 11.733 45.227-6.656 59.947-18.389 14.763-45.227 11.733-59.947-6.613l-85.333-106.667c-12.459-15.616-12.459-37.803 0-53.333l85.333-106.667c8.448-10.539 20.821-16 33.365-16 9.344 0 18.731 3.029 26.624 9.344 18.389 14.72 21.376 41.557 6.656 59.989l-29.781 37.12c135.467-1.536 227.797-89.472 320.299-189.952-91.563-102.315-182.571-192.853-320.341-193.749l29.824 37.248c14.72 18.432 11.733 45.269-6.656 59.904-18.432 14.805-45.269 11.733-59.989-6.571l-85.333-106.667c-12.459-15.616-12.459-37.845 0-53.333l85.333-106.667c8.491-10.539 20.821-16 33.408-16 9.344 0 18.731 2.987 26.624 9.344 18.389 14.763 21.376 41.6 6.656 59.989l-29.952 37.419c170.923 0.853 278.869 105.131 378.325 215.851 101.973-110.592 212.139-214.997 382.976-215.851l-29.995-37.419c-14.72-18.432-11.691-45.269 6.656-59.989 7.893-6.315 17.237-9.344 26.581-9.344 12.544 0 24.917 5.461 33.365 16l81.877 102.315c8.277 7.851 13.611 18.688 13.611 31.019-0.043 12.203-5.376 23.083-13.696 30.933z" />
<glyph unicode="&#xe934;" glyph-name="arrow-next" d="M822.315 475.008l-384 469.333c-11.392 13.952-30.336 19.243-47.36 13.184-16.939-6.059-28.288-22.144-28.288-40.192v-938.667c0-18.048 11.349-34.133 28.331-40.149 4.693-1.664 9.557-2.517 14.336-2.517 12.544 0 24.747 5.547 33.024 15.659l384 469.333c12.843 15.701 12.843 38.315-0.043 54.016zM448 98.176v699.605l286.208-349.781-286.208-349.824zM277.333 917.333v-938.667c0-23.552-19.115-42.667-42.667-42.667s-42.667 19.115-42.667 42.667v938.667c0 23.552 19.115 42.667 42.667 42.667s42.667-19.115 42.667-42.667z" />
<glyph unicode="&#xe935;" glyph-name="arrow-out-left" d="M970.923 490.667h-829.013l29.867 37.333c14.72 18.389 11.691 45.269-6.699 59.989s-45.312 11.691-60.032-6.699l-85.291-106.667c-12.459-15.616-12.459-37.717 0-53.291l85.291-106.667c8.491-10.539 20.864-16 33.408-16 9.344 0 18.688 2.987 26.624 9.301 18.389 14.805 21.376 41.643 6.699 59.947l-29.867 37.333h829.013c23.509 0 42.667 19.157 42.667 42.667 0 23.637-19.157 42.752-42.667 42.752z" />
<glyph unicode="&#xe936;" glyph-name="arrow-out-right" d="M53.12 490.667h828.971l-29.824 37.333c-14.763 18.389-11.648 45.269 6.656 59.989 18.432 14.72 45.269 11.691 59.989-6.699l85.333-106.667c12.416-15.616 12.416-37.717 0-53.291l-85.333-106.667c-8.405-10.539-20.821-16-33.323-16-9.344 0-18.773 2.987-26.667 9.301-18.347 14.805-21.333 41.643-6.656 59.947l29.824 37.333h-828.971c-23.595 0-42.667 19.157-42.667 42.667 0 23.637 19.029 42.752 42.667 42.752z" />
<glyph unicode="&#xe937;" glyph-name="arrow-outside" d="M981.76 896h-725.333c-23.552 0-42.667-19.115-42.667-42.667v-213.333h-82.731l29.867 37.333c14.72 18.389 11.733 45.227-6.699 59.947-18.347 14.763-45.227 11.733-59.947-6.613l-85.333-106.667c-12.459-15.616-12.459-37.803 0-53.333l85.333-106.667c8.405-10.539 20.821-16 33.323-16 9.344 0 18.773 3.029 26.624 9.344 18.432 14.72 21.419 41.557 6.699 59.989l-29.867 37.333h82.731v-213.333h-82.731l29.867 37.333c14.72 18.432 11.733 45.269-6.699 59.947-18.347 14.763-45.227 11.776-59.947-6.613l-85.333-106.667c-12.459-15.616-12.459-37.845 0-53.333l85.333-106.667c8.405-10.539 20.821-16 33.323-16 9.344 0 18.773 2.987 26.624 9.344 18.432 14.763 21.419 41.6 6.699 59.989l-29.867 37.333h82.731v-213.333c0-23.552 19.115-42.667 42.667-42.667h725.333c23.552 0 42.667 19.115 42.667 42.667v810.667c0 23.552-19.115 42.667-42.667 42.667zM939.093 85.333h-640v170.667h384c23.552 0 42.667 19.115 42.667 42.667s-19.115 42.667-42.667 42.667h-384v213.333h384c23.552 0 42.667 19.115 42.667 42.667s-19.115 42.667-42.667 42.667h-384v170.667h640v-725.333z" />
<glyph unicode="&#xe938;" glyph-name="arrow-outside-45" d="M981.333 917.333h-597.333c-23.552 0-42.667-19.115-42.667-42.667v-227.157l-256-255.957v13.781c0 23.552-19.115 42.667-42.667 42.667s-42.667-19.115-42.667-42.667v-128c0-23.552 19.115-42.667 42.667-42.667h128c23.552 0 42.667 19.115 42.667 42.667s-19.115 42.667-42.667 42.667h-36.224l206.891 206.848v-220.672l-128-127.915v13.739c0 23.552-19.115 42.667-42.667 42.667s-42.667-19.115-42.667-42.667v-128c0-23.552 19.115-42.667 42.667-42.667h128c23.552 0 42.667 19.115 42.667 42.667s-19.115 42.667-42.667 42.667h-36.224l78.891 78.933v-164.267c0-23.552 19.115-42.667 42.667-42.667h597.333c23.552 0 42.667 19.115 42.667 42.667v853.333c0 23.552-19.115 42.667-42.667 42.667zM938.667 64h-512v206.848l244.181 244.181c16.683 16.683 16.683 43.691 0 60.373s-43.648 16.683-60.331 0l-183.851-183.808v220.629l116.181 116.139c16.683 16.683 16.683 43.691 0 60.373s-43.648 16.683-60.373 0l-55.808-55.808v99.072h512v-768z" />
<glyph unicode="&#xe939;" glyph-name="arrow-outside-gap" d="M368 949.077c-15.616 12.501-37.76 12.459-53.333 0l-106.667-85.376c-18.389-14.763-21.376-41.6-6.656-59.989 8.448-10.539 20.821-16 33.365-16 9.344 0 18.731 3.072 26.624 9.344l37.333 29.952v-718.805c0-23.552 19.115-42.667 42.667-42.667s42.667 19.115 42.667 42.667v718.805l37.333-29.867c18.432-14.763 45.269-11.733 59.989 6.613 14.72 18.432 11.733 45.269-6.656 59.989l-106.667 85.333zM779.989 803.755c14.72 18.432 11.691 45.269-6.656 59.989l-106.667 85.333c-15.616 12.501-37.76 12.459-53.333 0l-106.667-85.376c-18.389-14.763-21.376-41.6-6.656-59.989 8.448-10.539 20.821-16 33.408-16 9.344 0 18.688 3.072 26.581 9.344l37.333 29.909v-718.763c0-23.552 19.157-42.667 42.667-42.667 23.595 0 42.667 19.115 42.667 42.667v718.805l37.333-29.867c18.432-14.763 45.269-11.733 59.989 6.613zM213.333 534.869h-170.667c-23.552 0-42.667-19.115-42.667-42.667s19.115-42.667 42.667-42.667h128v-469.333c0-23.552 19.115-42.667 42.667-42.667s42.667 19.115 42.667 42.667v512c0 23.552-19.115 42.667-42.667 42.667zM981.333 534.869h-213.333c-23.552 0-42.667-19.115-42.667-42.667v-512c0-23.552 19.115-42.667 42.667-42.667s42.667 19.115 42.667 42.667v469.333h170.667c23.552 0 42.667 19.115 42.667 42.667s-19.115 42.667-42.667 42.667z" />
<glyph unicode="&#xe93a;" glyph-name="arrow-outside-gap-45" d="M597.333 725.333c23.552 0 42.667 19.115 42.667 42.667v85.333c0 23.552-19.115 42.667-42.667 42.667h-85.333c-23.552 0-42.667-19.115-42.667-42.667 0-17.536 10.624-32.555 25.771-39.125l-145.067-191.104c-5.632-7.424-8.704-16.469-8.704-25.771v-426.667c0-23.552 19.115-42.667 42.667-42.667s42.667 19.115 42.667 42.667v412.288l130.688 172.075c5.461-17.109 21.077-29.696 39.979-29.696zM810.667 725.333c23.552 0 42.667 19.115 42.667 42.667v85.333c0 23.552-19.115 42.667-42.667 42.667h-85.333c-23.552 0-42.667-19.115-42.667-42.667 0-17.536 10.624-32.555 25.771-39.125l-145.024-191.104c-5.675-7.424-8.747-16.469-8.747-25.771v-426.667c0-23.552 19.115-42.667 42.667-42.667s42.667 19.115 42.667 42.667v412.288l130.688 172.075c5.461-17.109 21.077-29.696 39.979-29.696zM256 597.333h-213.333c-23.552 0-42.667-19.115-42.667-42.667s19.115-42.667 42.667-42.667h170.667v-469.333c0-23.552 19.115-42.667 42.667-42.667s42.667 19.115 42.667 42.667v512c0 23.552-19.115 42.667-42.667 42.667zM981.333 597.333h-256c-23.552 0-42.667-19.115-42.667-42.667v-512c0-23.552 19.115-42.667 42.667-42.667s42.667 19.115 42.667 42.667v469.333h213.333c23.552 0 42.667 19.115 42.667 42.667s-19.115 42.667-42.667 42.667z" />
<glyph unicode="&#xe93b;" glyph-name="arrow-over" d="M1014.187 423.552l-85.333 106.667c-14.763 18.347-41.6 21.376-59.989 6.613s-21.333-41.6-6.613-59.947l29.867-37.333h-151.424c-18.603 123.307-117.461 208.939-248.832 208.939s-230.315-85.632-248.875-208.939h-199.893c-23.552 0-42.667-19.115-42.667-42.667s19.115-42.667 42.667-42.667h239.488c23.552 0 42.667 19.115 42.667 42.667 0 97.92 68.523 166.272 166.656 166.272s166.613-68.395 166.613-166.272c0-23.552 19.072-42.667 42.667-42.667h190.933l-29.867-37.333c-14.72-18.475-11.691-45.312 6.613-59.947 7.936-6.315 17.28-9.387 26.667-9.387 12.501 0 24.917 5.461 33.323 16l85.333 106.667c12.501 15.573 12.501 37.76 0 53.333zM491.563 522.24c-58.069 0-105.344-47.232-105.344-105.344s47.232-105.387 105.344-105.387c58.112 0 105.344 47.232 105.344 105.387-0.085 58.069-47.275 105.344-105.344 105.344zM491.563 396.885c-11.051 0-20.011 8.96-20.011 20.053 0 10.965 8.96 20.011 20.011 20.011s20.011-8.96 20.011-20.011c-0.043-11.093-8.96-20.053-20.011-20.053z" />
<glyph unicode="&#xe93c;" glyph-name="arrow-refresh" d="M656.256 448.043c0 80-65.067 145.067-145.109 145.067-80 0-145.109-65.067-145.109-145.067s65.067-145.152 145.109-145.152c80 0.043 145.109 65.195 145.109 145.152zM448.896 448.043c0 34.261 27.904 62.208 62.208 62.208s62.208-27.904 62.208-62.208-27.904-62.208-62.208-62.208c-34.304 0-62.208 27.904-62.208 62.208zM1004.672 419.84l-100.565 63.275c-0.853 0.512-1.835 0.469-2.688 0.896-3.499 1.835-7.253 2.987-11.264 3.797-2.091 0.427-4.011 1.109-6.144 1.237-0.725 0-1.28 0.384-2.133 0.384-4.352 0-8.363-1.195-12.331-2.475-0.896-0.299-2.005-0.043-2.944-0.427l-110.549-43.819c-21.248-8.448-31.659-32.555-23.253-53.888 8.491-21.248 32.64-31.744 53.888-23.253l47.616 18.901c-29.269-154.539-162.987-271.659-323.243-271.659-22.912 0-41.472-18.603-41.472-41.515s18.603-41.472 41.472-41.472c203.435 0 372.48 150.272 405.931 347.051l43.435-27.349c6.912-4.352 14.507-6.357 22.101-6.357 13.739 0 27.264 6.869 35.115 19.413 12.203 19.413 6.357 45.013-12.971 57.259zM237.696 527.829l-50.176-18.304c28.459 155.52 162.645 273.749 323.584 273.749 22.912 0 41.515 18.56 41.515 41.429s-18.603 41.429-41.515 41.429c-202.709 0-371.371-149.205-405.589-344.917l-41.045 27.435c-19.029 12.757-44.8 7.595-57.515-11.435-12.715-19.072-7.637-44.8 11.435-57.557l98.816-66.048c1.408-0.896 3.029-1.323 4.523-2.091 1.408-0.725 2.688-1.408 4.139-2.005 4.608-1.664 9.472-2.816 14.379-2.816 4.821 0 9.643 0.853 14.251 2.517l111.616 40.875c21.504 7.851 32.597 31.659 24.704 53.163s-31.659 32.427-53.12 24.576z" />
<glyph unicode="&#xe93d;" glyph-name="arrow-refresh-2" d="M499.712 575.317c-34.048-3.328-64.768-19.669-86.485-46.037-21.717-26.411-31.872-59.691-28.544-93.696 6.315-65.877 61.099-115.627 127.189-115.627 4.139 0 8.32 0.171 12.459 0.64 34.048 3.243 64.811 19.584 86.485 46.080 21.76 26.411 31.915 59.648 28.587 93.696-6.741 70.016-69.163 121.856-139.691 114.944zM544.981 420.821c-7.253-8.832-17.493-14.251-28.843-15.36l-4.267-0.171c-22.016 0-40.149 16.555-42.325 38.571-1.109 11.307 2.261 22.4 9.515 31.189 7.211 8.789 17.451 14.208 28.8 15.275l4.309 0.256c22.059 0 40.192-16.555 42.283-38.571 1.109-11.307-2.219-22.4-9.472-31.189zM998.485 477.355l-65.237 35.157c-33.749 221.44-232.747 382.421-462.464 360.107-208.597-20.309-367.445-188.501-383.616-390.571l-21.205 11.392c-20.736 11.136-46.635 3.371-57.771-17.408s-3.328-46.635 17.451-57.771l65.152-34.901c31.616-207.957 208.299-362.027 420.864-362.027 13.781 0 27.733 0.64 41.728 2.005 208.555 20.267 367.36 188.331 383.616 390.272l20.992-11.307c6.4-3.499 13.355-5.163 20.224-5.163 15.189 0 29.867 8.149 37.632 22.443 11.051 20.736 3.413 46.592-17.365 57.771zM545.067 108.203c-180.437-17.579-336.853 105.643-368.427 277.248l57.771 26.88c21.376 9.899 30.635 35.328 20.693 56.661-9.941 21.376-35.413 30.592-56.704 20.693l-26.155-12.203c13.995 160.64 140.715 294.059 306.773 310.187 11.264 1.109 22.357 1.664 33.493 1.664 166.229 0 305.323-117.973 335.104-278.827l-57.771-26.667c-21.376-9.856-30.72-35.243-20.779-56.619 9.813-21.376 35.243-30.72 56.576-20.864l26.325 12.245c-13.867-160.768-140.715-294.187-306.901-310.4z" />
<glyph unicode="&#xe93e;" glyph-name="arrow-right" d="M384-63.957c-6.912 0-13.909 1.664-20.395 5.205-20.693 11.349-28.331 37.205-17.024 57.813l244.821 448.939-244.821 448.896c-11.349 20.651-3.669 46.549 16.981 57.856 20.651 11.264 46.592 3.627 57.856-17.024l256-469.333c6.997-12.757 6.997-28.16 0-40.832l-256-469.333c-7.723-14.165-22.315-22.187-37.419-22.187z" />
<glyph unicode="&#xe93f;" glyph-name="arrow-right-2" d="M762.795 427.563l-256-469.333c-7.765-14.251-22.4-22.229-37.504-22.229-6.912 0-13.909 1.664-20.395 5.205-20.693 11.307-28.331 37.205-17.024 57.856l244.864 448.896-244.864 448.896c-11.307 20.651-3.669 46.549 17.024 57.856 20.736 11.264 46.592 3.627 57.899-17.024l256-469.333c6.955-12.672 6.955-28.075 0-40.789zM592.128 468.437l-256 469.333c-11.264 20.651-37.12 28.331-57.899 17.024-20.693-11.307-28.331-37.205-17.024-57.856l244.864-448.896-244.864-448.896c-11.307-20.693-3.669-46.592 17.024-57.856 6.485-3.541 13.483-5.205 20.395-5.205 15.104 0 29.739 8.021 37.504 22.229l256 469.333c6.955 12.629 6.955 28.032 0 40.789z" />
<glyph unicode="&#xe940;" glyph-name="arrow-right-in-circle" d="M485.077 767.829c-11.691 20.437-37.717 27.563-58.197 15.872-20.437-11.648-27.563-37.76-15.872-58.197l158.592-277.504-158.549-277.504c-11.691-20.437-4.565-46.507 15.872-58.155 6.656-3.797 13.952-5.632 21.12-5.632 14.805 0 29.227 7.723 37.077 21.504l170.667 298.667c7.509 13.141 7.509 29.227 0 42.325l-170.709 298.624zM512 960c-282.752 0-512-229.248-512-512 0-282.709 229.248-512 512-512s512 229.291 512 512c0 282.752-229.205 512-512 512zM512 21.333c-235.264 0-426.667 191.403-426.667 426.667s191.403 426.667 426.667 426.667c235.264 0 426.667-191.403 426.667-426.667s-191.403-426.667-426.667-426.667z" />
<glyph unicode="&#xe941;" glyph-name="arrow-shuffle" d="M560.469 487.637c11.605 0 23.253 4.693 31.659 14.037 75.477 83.371 192.811 137.344 299.776 138.453l-29.909-37.419c-14.763-18.432-11.733-45.269 6.613-59.989 7.893-6.272 17.28-9.344 26.624-9.344 12.544 0 24.917 5.504 33.365 16l82.475 103.040c0.896 0.853 1.408 1.92 2.261 2.816l0.683 0.811c0.171 0.299 0.256 0.597 0.469 0.853 5.76 7.253 9.771 16.085 9.771 26.112 0 12.501-5.589 23.467-14.165 31.275l-81.408 101.76c-14.763 18.389-41.6 21.376-59.989 6.613-18.432-14.72-21.376-41.557-6.656-59.989l29.824-37.248c-130.005-1.152-272.171-66.133-362.965-166.528-15.787-17.493-14.464-44.459 3.029-60.245 8.064-7.339 18.304-11.008 28.544-11.008zM365.696 393.6c-78.933-66.048-217.515-115.925-322.389-115.925-23.552 0-42.667-19.115-42.667-42.667s19.115-42.667 42.667-42.667c124.544 0 283.179 57.131 377.173 135.851 18.048 15.104 20.437 41.984 5.333 60.075-15.147 18.091-42.069 20.48-60.117 5.333zM1010.048 244.907l-81.408 101.76c-14.72 18.432-41.557 21.419-59.947 6.613-18.432-14.72-21.419-41.557-6.656-59.947l29.568-36.907c-152.192 1.109-269.995 109.056-394.581 223.275-131.755 120.875-267.989 245.888-454.613 245.888-23.552 0-42.667-19.115-42.667-42.667s19.115-42.667 42.667-42.667c153.387 0 271.701-108.544 396.928-223.445 131.328-120.491 267.179-244.992 452.821-245.845l-30.165-37.675c-14.763-18.475-11.733-45.312 6.656-59.989 7.893-6.229 17.28-9.301 26.581-9.301 12.587 0 24.917 5.504 33.408 16l82.432 102.997c0.896 0.896 1.451 1.92 2.261 2.816l0.683 0.853c0.213 0.256 0.256 0.597 0.512 0.853 5.76 7.253 9.771 16.085 9.771 26.069-0.085 12.587-5.675 23.552-14.251 31.317z" />
<glyph unicode="&#xe942;" glyph-name="arrow-squiggly" d="M1025.536 214.827c0 12.288-5.333 23.168-13.611 31.019l-81.92 102.357c-14.72 18.389-41.6 21.376-59.947 6.613-18.389-14.805-21.376-41.643-6.613-59.947l29.824-37.333h-1.835c-53.931 0-63.659 11.691-65.749 158.891-1.024 76.16-2.432 170.88-27.264 278.955-41.429 179.84-174.763 257.408-287.275 254.037-97.237-2.731-172.501-62.208-187.349-147.968-25.6-148.053 78.72-253.099 184.107-336.299 86.485-68.267 134.955-162.688 129.536-252.629-3.669-60.672-31.403-111.147-76.16-138.496-43.179-26.411-107.477-18.859-152.875 17.749-57.003 46.080-71.339 125.184-39.296 217.088 41.771 119.851 15.232 235.264-67.584 294.101-66.389 47.104-150.101 42.709-218.411-11.605-56.96-45.227-86.229-114.645-84.608-200.704 3.285-174.165 126.763-374.485 210.347-435.925 7.637-5.589 16.469-8.235 25.216-8.235 13.141 0 26.069 6.016 34.432 17.365 13.952 19.072 9.856 45.739-9.088 59.648-67.285 49.408-172.971 230.016-175.573 368.768-1.109 59.307 16.512 103.851 52.395 132.309 37.931 30.123 81.237 33.451 115.925 8.789 38.784-27.563 71.595-95.488 36.395-196.395-43.989-126.123-19.2-242.688 66.261-311.595 73.685-59.563 176.853-69.419 250.837-24.192 68.992 42.027 111.531 117.248 116.907 206.208 7.083 117.845-53.419 239.189-161.835 324.736-103.936 82.091-169.728 156.843-152.832 254.763 9.515 55.125 62.848 76.032 105.6 77.227 73.6 2.432 169.131-46.037 201.771-187.819 22.827-99.243 24.064-188.971 25.088-261.077 1.749-124.928 3.413-242.901 151.083-242.901h1.835l-29.824-37.333c-14.763-18.475-11.733-45.312 6.613-59.989 7.893-6.315 17.28-9.344 26.624-9.344 12.501 0 24.917 5.419 33.365 16l81.877 102.315c8.277 7.723 13.611 18.56 13.611 30.848z" />
<glyph unicode="&#xe943;" glyph-name="arrow-through" d="M1024 426.624c0 12.288-5.333 23.168-13.653 30.976l-81.877 102.4c-14.677 18.347-41.6 21.376-59.947 6.613-18.432-14.763-21.419-41.6-6.656-59.947l29.824-37.333h-152.277c-11.008 145.92-132.907 261.333-281.6 261.333s-270.592-115.456-281.6-261.333h-133.547c-23.552 0-42.667-19.115-42.667-42.667s19.115-42.667 42.667-42.667h140.032c29.099-125.099 141.269-218.667 275.072-218.667s245.973 93.483 275.072 218.667h158.848l-29.867-37.333c-14.72-18.432-11.733-45.269 6.613-59.989 7.893-6.315 17.28-9.344 26.667-9.344 12.501 0 24.917 5.461 33.323 16l81.877 102.315c8.363 7.851 13.696 18.688 13.696 30.976zM457.771 250.624c-86.272 0-159.019 56.021-185.771 133.333h112c23.552 0 42.667 19.115 42.667 42.667s-19.115 42.667-42.667 42.667h-121.387c10.795 98.688 93.653 176 195.157 176 108.8 0 197.333-88.491 197.333-197.333s-88.491-197.333-197.333-197.333z" />
<glyph unicode="&#xe944;" glyph-name="arrow-to" d="M990.635 508.629c-23.552 0-42.667-19.115-42.667-42.667v-29.781c-284.16 244.352-774.016 180.267-941.824 41.301-18.133-15.019-20.651-41.899-5.632-60.075s41.899-20.693 60.075-5.675c141.909 117.419 570.709 171.563 820.523-31.104h-18.517c-23.552 0-42.667-19.115-42.667-42.667s19.115-42.667 42.667-42.667h128c23.552 0 42.667 19.115 42.667 42.667v128c0.043 23.552-19.072 42.667-42.624 42.667z" />
<glyph unicode="&#xe945;" glyph-name="arrow-turn-left" d="M208.427 677.547l341.333 273.067c18.432 14.763 45.312 11.733 59.989-6.613 14.763-18.432 11.733-45.269-6.656-59.989l-299.648-239.787 299.648-239.829c18.432-14.72 21.419-41.557 6.656-59.904-8.405-10.539-20.821-16-33.323-16-9.344 0-18.731 3.072-26.667 9.344l-341.333 273.067c-10.112 8.107-16 20.395-16 33.323 0 12.971 5.888 25.216 16 33.323zM541.355 644.267c0 23.552 19.029 42.667 42.667 42.667 136.448 0 247.509-110.976 247.509-247.467v-460.8c0-23.509-19.115-42.667-42.667-42.667s-42.667 19.157-42.667 42.667v460.8c0 89.429-72.747 162.133-162.176 162.133-23.595 0-42.667 19.072-42.667 42.667z" />
<glyph unicode="&#xe946;" glyph-name="arrow-turn-right" d="M815.531 677.547l-341.333 273.067c-18.389 14.763-45.312 11.733-59.947-6.613-14.72-18.432-11.733-45.269 6.656-59.989l299.648-239.787-299.648-239.829c-18.432-14.72-21.376-41.557-6.656-59.904 8.405-10.539 20.821-16 33.323-16 9.344 0 18.731 3.072 26.624 9.344l341.333 273.067c10.112 8.107 16.043 20.395 16.043 33.323-0.043 12.971-5.931 25.216-16.043 33.323zM482.603 644.267c0 23.552-19.072 42.667-42.667 42.667-136.448 0-247.509-110.976-247.509-247.467v-460.8c0-23.509 19.115-42.667 42.667-42.667s42.667 19.157 42.667 42.667v460.8c0 89.429 72.747 162.133 162.176 162.133 23.552 0 42.667 19.072 42.667 42.667z" />
<glyph unicode="&#xe947;" glyph-name="arrow-up" d="M981.248 277.376c-6.912 0-13.909 1.664-20.395 5.205l-448.853 244.821-448.896-244.821c-20.651-11.349-46.592-3.669-57.856 16.981-11.307 20.651-3.669 46.592 17.024 57.856l469.333 256c12.715 6.912 28.117 6.912 40.832 0l469.333-256c20.651-11.307 28.331-37.205 16.981-57.856-7.765-14.165-22.357-22.187-37.504-22.187z" />
<glyph unicode="&#xe948;" glyph-name="arrow-up-2" d="M5.248 384.896c-11.307 20.651-3.669 46.549 17.024 57.856l469.333 256c12.715 6.912 28.117 6.912 40.832 0l469.333-256c20.651-11.307 28.331-37.205 16.981-57.856-7.765-14.165-22.315-22.229-37.504-22.229-6.912 0-13.909 1.664-20.395 5.205l-448.853 244.864-448.896-244.821c-20.651-11.349-46.592-3.669-57.856 16.981zM1001.771 272.171l-469.333 256c-12.715 6.912-28.117 6.912-40.832 0l-469.333-256c-20.693-11.349-28.331-37.205-17.024-57.813 11.307-20.736 37.205-28.416 57.856-17.024l448.896 244.779 448.896-244.821c6.443-3.541 13.44-5.205 20.395-5.205 15.104 0 29.739 8.021 37.504 22.229 11.307 20.651 3.627 46.507-17.024 57.856z" />
<glyph unicode="&#xe949;" glyph-name="arrow-up-3" d="M42.24 298.667h938.667c0.299 0 0.597 0 0.853 0 23.595 0 42.667 19.115 42.667 42.667 0 15.744-8.576 29.483-21.248 36.907l-464.597 380.075c-15.744 12.885-38.315 12.885-54.059 0l-469.333-384c-13.995-11.435-19.243-30.379-13.184-47.317 6.144-16.981 22.229-28.331 40.235-28.331zM511.573 670.208l349.781-286.208h-699.563l349.781 286.208zM981.845 213.333h-938.667c-23.552 0-42.667-19.115-42.667-42.667s19.115-42.667 42.667-42.667h938.667c23.509 0 42.667 19.115 42.667 42.667s-19.157 42.667-42.667 42.667z" />
<glyph unicode="&#xe94a;" glyph-name="arrow-up-in-circle" d="M831.872 421.035l-298.667 170.667c-13.141 7.509-29.227 7.509-42.325 0l-298.667-170.667c-20.437-11.605-27.563-37.76-15.872-58.197 11.648-20.437 37.76-27.563 58.197-15.829l277.504 158.507 277.504-158.507c6.613-3.84 13.952-5.675 21.12-5.675 14.848 0 29.269 7.765 37.077 21.504 11.691 20.395 4.608 46.507-15.872 58.197zM512 960c-282.752 0-512-229.248-512-512 0-282.709 229.248-512 512-512s512 229.291 512 512c0 282.752-229.248 512-512 512zM512 21.333c-235.264 0-426.667 191.403-426.667 426.667s191.403 426.667 426.667 426.667c235.264 0 426.667-191.403 426.667-426.667s-191.403-426.667-426.667-426.667z" />
<glyph unicode="&#xe94b;" glyph-name="arrow-x-left" d="M1014.4 471.893l-316.8 469.333c-7.893 11.776-21.163 18.773-35.371 18.773h-617.301c-23.552 0-42.667-19.115-42.667-42.667v-938.667c0-23.552 19.115-42.667 42.667-42.667h617.344c14.208 0 27.477 7.083 35.371 18.731l316.843 469.333c9.685 14.464 9.685 33.365-0.085 47.829zM639.573 21.333h-551.979v853.333h551.979l288-426.667-288-426.667zM596.352 669.099c-16.725 16.597-43.648 16.512-60.331-0.128l-137.771-138.368-137.813 138.368c-16.555 16.683-43.563 16.725-60.331 0.128-16.725-16.64-16.768-43.648-0.128-60.373l138.027-138.624-137.984-138.581c-16.64-16.768-16.597-43.691 0.128-60.331 8.32-8.277 19.2-12.501 30.123-12.501 11.008 0 21.931 4.224 30.208 12.587l137.771 138.411 137.771-138.411c8.32-8.363 19.285-12.587 30.208-12.587 10.88 0 21.803 4.224 30.123 12.501 16.768 16.64 16.811 43.563 0.128 60.331l-137.984 138.624 137.984 138.624c16.597 16.64 16.555 43.691-0.128 60.331z" />
<glyph unicode="&#xe94c;" glyph-name="arrow-x-right" d="M959.488 960h-540.928c-13.397 0-25.984-6.315-34.048-16.981l-354.048-469.333c-11.477-15.189-11.477-36.181 0-51.456l354.048-469.333c8.064-10.667 20.651-16.896 34.048-16.896h540.928c23.509 0 42.667 19.115 42.667 42.667v938.667c0 23.552-19.157 42.667-42.667 42.667zM916.821 21.333h-477.013l-321.835 426.667 321.835 426.667h477.013v-853.333zM441.643 608.725l137.941-138.624-137.941-138.624c-16.64-16.768-16.555-43.776 0.128-60.331 8.32-8.277 19.2-12.501 30.123-12.501 10.965 0 21.888 4.224 30.208 12.587l137.728 138.411 137.771-138.411c8.32-8.363 19.285-12.587 30.251-12.587 10.837 0 21.76 4.224 30.080 12.501 16.683 16.555 16.768 43.563 0.171 60.331l-137.984 138.624 137.984 138.624c16.597 16.683 16.512 43.691-0.171 60.373-16.768 16.597-43.648 16.512-60.331-0.128l-137.771-138.368-137.728 138.368c-16.597 16.683-43.605 16.725-60.331 0.128-16.683-16.64-16.725-43.691-0.128-60.373z" />
<glyph unicode="&#xe94d;" glyph-name="at-sign" d="M552.832 957.696c-222.208 0-552.832-157.269-552.832-590.592 0-276.139 278.613-428.843 471.168-428.843 140.16 0 205.483 45.483 212.48 50.688 18.688 13.867 22.485 40.021 8.917 58.965-13.611 18.901-40.192 23.211-59.307 9.899-0.512-0.341-50.688-34.304-162.176-34.304-157.696 0-385.835 122.325-385.835 343.509 0 370.688 279.552 505.259 467.499 505.259 217.301 0 385.835-206.037 385.835-383.232 0-264.107-106.112-264.107-140.971-264.107-47.232 0-97.579 93.525-98.688 160.811 27.477 163.285 39.979 235.691 40.021 235.819 3.115 17.92-5.504 35.84-21.419 44.629-55.552 30.677-111.659 46.208-166.827 46.208-171.008 0-304.981-151.68-304.981-345.301 0-111.829 76.459-227.499 204.416-227.499 46.208 0 139.989 13.184 200.363 108.459 31.872-60.16 82.816-108.459 147.2-108.459 103.253 0 226.304 60.587 226.304 349.44 0 221.227-201.515 468.651-471.168 468.651zM450.133 224.939c-77.355 0-119.083 73.216-119.083 142.165 0 145.749 96.469 259.925 219.605 259.925 32.085 0 65.152-7.467 98.773-22.272-6.229-36.053-17.792-104.277-35.456-209.579-18.901-112.981-74.027-170.24-163.84-170.24z" />
<glyph unicode="&#xe94e;" glyph-name="atm" d="M981.291-21.333v853.333c0 2.944-0.64 5.76-1.707 8.363-4.437 66.005-58.496 118.485-125.397 119.467-0.299 0-0.555 0.171-0.896 0.171h-682.667c-0.171 0-0.299-0.085-0.427-0.085s-0.256 0.085-0.427 0.085c-70.571 0-128-57.429-128-128 0-1.536 0.896-853.333 0.896-853.333-11.776 0-21.333-9.6-21.333-21.333s9.557-21.333 21.333-21.333h938.667c11.733 0 21.333 9.6 21.333 21.333s-9.6 21.333-21.376 21.333zM255.061 149.333h-42.667v42.667h42.667v-42.667zM255.061 234.667h-42.667v42.667h42.667v-42.667zM255.061 320h-42.667v42.667h42.667v-42.667zM340.395 149.333h-42.667v42.667h42.667v-42.667zM340.395 234.667h-42.667v42.667h42.667v-42.667zM340.395 320h-42.667v42.667h42.667v-42.667zM425.728 149.333h-42.667v42.667h42.667v-42.667zM425.728 234.667h-42.667v42.667h42.667v-42.667zM425.728 320h-42.667v42.667h42.667v-42.667zM511.061 149.333h-42.667v42.667h42.667v-42.667zM511.061 234.667h-42.667v42.667h42.667v-42.667zM511.061 320h-42.667v42.667h42.667v-42.667zM638.251 525.013c-4.267-42.496-39.381-75.861-82.731-76.8-0.299 0-0.555-0.171-0.896-0.171h-341.333c-0.171 0 0 0.085 0 0.085v-0.085c-42.667 0-85.333 38.272-85.333 85.333 0 1.536 0 211.797 0 213.333 0 70.571 56.96 128 127.573 128 0.171 0 0.043-0.085 0.213-0.085 0.128 0 0.043 0.085 0.213 0.085h256c0.299 0 0.597-0.171 0.896-0.171 66.901-0.939 121.045-53.419 125.397-119.467 1.067-2.645 1.067-227.541 0-230.059zM895.957 533.333h-213.333v42.667h213.333v-42.667zM511.061 832h-255.104c-0.171 0-0.299 0.085-0.427 0.085s-0.256-0.085-0.427-0.085c-46.080 0-83.499-36.693-85.035-82.432 0.128-0.981 0.597-1.877 0.597-2.901v-213.333c0-0.768-0.341-1.408-0.427-2.176 1.195-22.4 19.499-40.491 42.24-40.491 0.171 0 0.299-0.085 0.427-0.085s0.256 0.085 0.427 0.085h340.437c23.552 0 42.667 19.157 42.667 42.667 0 1.536 0.597 2.901 0.896 4.352v204.672c-0.299 1.408-0.896 2.773-0.896 4.352 0 47.061-38.272 85.291-85.376 85.291z" />
<glyph unicode="&#xe94f;" glyph-name="baby-clothes" d="M587.989 566.571c-17.195 0-41.771-12.373-59.051-47.019-7.253-14.464-30.933-14.464-38.187 0-17.323 34.688-41.856 47.019-59.051 47.019-15.829 0-28.16-9.643-33.92-26.453-16.683-48.811 34.347-140.16 112.043-175.659 77.739 35.499 128.768 126.848 112.043 175.659-5.717 16.811-18.091 26.453-33.877 26.453zM988.843 730.325c-5.675 7.211-141.099 177.195-320.427 218.795-10.88 2.517-22.187-3.968-25.344-14.891-13.781-47.787-68.096-184.277-136.32-184.277-65.451 0-114.219 135.936-126.165 183.509-2.816 11.307-14.293 18.219-25.515 15.659-179.456-41.643-314.325-213.12-320-220.416-6.315-8.149-5.931-19.584 0.939-27.307l91.008-102.144c4.48-5.035 10.923-7.595 17.707-7.083l62.805 5.248v-412.075c0-11.733 9.557-21.333 21.333-21.333 113.024 0 182.997-83.456 182.997-160.768 0-34.645 39.083-56.917 99.541-56.917s99.541 22.272 99.541 56.917c0 70.571 96.811 160.768 172.587 160.768 11.776 0 21.333 9.6 21.333 21.333v412.373l68.395-4.779c6.315-0.427 12.587 1.963 16.939 6.613l97.323 102.912c7.339 7.68 7.851 19.541 1.323 27.861zM517.717 321.408c-2.517-0.981-5.205-1.493-7.893-1.493s-5.333 0.512-7.893 1.493c-97.664 38.912-170.624 156.245-144.555 232.491 11.648 34.133 40.107 55.296 74.283 55.296 29.056 0 56.789-14.848 78.123-40.875 21.376 26.069 49.109 40.875 78.165 40.875 34.176 0 62.635-21.205 74.283-55.296 26.112-76.245-46.805-193.579-144.512-232.491z" />
<glyph unicode="&#xe950;" glyph-name="baby-clothes-2" d="M640 757.035c0-14.763-1.92-29.312-3.84-43.349-1.835-13.995-3.584-27.221-3.584-40.576 0-69.547 22.016-137.301 63.445-197.291 66.645 67.755 161.963 117.717 279.467 142.421 1.451 0.256 2.944 0.427 4.437 0.427h44.075v70.656c0 55.125-44.843 100.011-100.011 100.011h-283.989v-32.299zM805.333 738.731c35.328 0 64-28.715 64-64s-28.672-64-64-64c-35.243 0-64 28.715-64 64s28.757 64 64 64zM826.667 674.731c0-11.776-9.557-21.333-21.333-21.333s-21.333 9.557-21.333 21.333c0 11.776 9.557 21.333 21.333 21.333s21.333-9.557 21.333-21.333zM21.333 618.709c110.464 0 209.749-49.792 279.253-128.64 35.413 54.613 54.4 117.035 54.4 187.008 0 12.032-3.072 23.637-6.315 35.925-3.627 13.696-7.339 27.904-7.339 43.989v32.427h-241.365c-55.125-0.043-99.968-44.885-99.968-100.053v-70.656h21.333zM208 738.731c35.285 0 64-28.715 64-64s-28.715-64-64-64-64 28.715-64 64 28.715 64 64 64zM229.333 674.731c0-11.776-9.557-21.333-21.333-21.333s-21.333 9.557-21.333 21.333c0 11.776 9.557 21.333 21.333 21.333s21.333-9.557 21.333-21.333zM597.333 128.981c0 12.544-1.749 26.581-3.499 40.832-1.92 16.171-4.011 32.981-4.011 48.981 0 84.309 27.435 160.512 77.269 224.043-50.347 69.248-77.269 148.437-77.269 230.187 0 16.213 2.091 31.488 4.011 46.251 1.749 12.8 3.499 25.301 3.499 37.717v32.384h-213.333v-32.384c0-10.581 2.901-21.504 5.973-33.109 3.584-13.653 7.68-29.227 7.68-46.805 0-83.755-23.339-158.592-68.864-222.976 45.397-65.451 72.619-145.621 72.619-232.491 0-17.877-4.992-34.731-9.813-51.115-3.925-13.312-7.595-25.813-7.595-36.096v-27.221c4.181-0.085 8.235-0.64 12.459-0.64h200.875v22.443zM982.144 576.043c-169.472-36.267-349.525-148.949-349.525-357.163 0-13.995 1.835-29.141 3.669-43.904 1.877-16 3.712-31.829 3.712-45.952v-21.675c212.821 6.699 384 181.419 384 395.819v72.875h-41.856zM341.333 134.485c0 16.427 4.736 32.597 9.344 48.085 4.139 14.080 8.064 27.349 8.064 39.040 0 195.413-151.339 354.432-337.408 354.432h-21.333v-72.917c0-199.851 148.779-365.184 341.333-392.107v23.467z" />
<glyph unicode="&#xe951;" glyph-name="bag" d="M725.333 234.667v341.333h-426.667v-341.333h128v64c0 11.733 9.557 21.333 21.333 21.333h128c11.733 0 21.333-9.6 21.333-21.333v-64h128zM832 576h-64v-362.667c0-11.733-9.6-21.333-21.333-21.333h-149.333v-64c0-11.733-9.6-21.333-21.333-21.333h-128c-11.776 0-21.333 9.6-21.333 21.333v64h-149.333c-11.776 0-21.333 9.6-21.333 21.333v362.667h-64c-11.776 0-21.333-9.557-21.333-21.333v-597.333c0-11.733 9.557-21.333 21.333-21.333h640c11.733 0 21.333 9.6 21.333 21.333v597.333c0 11.776-9.6 21.333-21.333 21.333zM469.333 277.333h85.333v-128h-85.333v128zM298.667 704c0 119.637 91.392 213.333 208 213.333 118.485 0 218.667-97.707 218.667-213.333v-85.333h42.667v85.333c0 138.752-119.68 256-261.333 256-140.544 0-250.667-112.469-250.667-256v-85.333h42.667v85.333z" />
<glyph unicode="&#xe952;" glyph-name="bakelite" d="M391.893 661.333c17.664 49.579 64.597 85.333 120.107 85.333s102.4-35.755 120.064-85.333h218.24c-21.12 168.107-164.608 298.667-338.389 298.667s-317.269-130.56-338.347-298.667h218.325zM512 874.667c106.24 0 199.851-63.915 238.507-162.816 4.352-10.965-1.152-23.339-12.075-27.648-2.603-0.981-5.248-1.493-7.808-1.493-8.533 0-16.597 5.163-19.883 13.568-32.213 82.432-110.208 135.723-198.784 135.723-11.776 0-21.333 9.557-21.333 21.333s9.6 21.333 21.376 21.333zM438.528 661.333h146.901c-14.805 25.387-41.941 42.667-73.472 42.667s-58.624-17.28-73.429-42.667zM874.667 618.667h-725.333c-11.776 0-21.333-9.557-21.333-21.333v-640c0-11.733 9.557-21.333 21.333-21.333h725.333c11.733 0 21.333 9.6 21.333 21.333v640c0 11.776-9.6 21.333-21.333 21.333z" />
<glyph unicode="&#xe953;" glyph-name="banana" d="M990.848 702.677h-102.656c-8.064 0-15.403-4.523-19.072-11.733-22.229-44.629-22.571-78.037-22.827-104.917-0.341-26.837-0.427-40.277-20.736-56.661-90.453-72.832-203.435-109.781-335.616-109.781-201.771 0-308.523 98.944-346.24 143.36-15.957 28.501-40.235 44.8-67.029 44.8-19.243 0-37.419-8.405-49.963-23.083-11.776-13.781-16.939-31.744-14.251-49.28 5.461-35.029 65.237-342.059 472.235-342.059 267.861 0 386.56 111.445 433.493 177.92 52.693 74.667 67.029 164.565 39.893 247.765 5.333 11.691 26.581 31.872 45.056 44.8 7.637 5.333 10.923 15.061 8.107 23.936-2.901 8.875-11.179 14.933-20.395 14.933zM852.181 410.709c-98.176-79.104-220.16-119.211-362.368-119.211-170.283 0-278.955 64.725-340.139 119.040-8.832 7.851-9.643 21.333-1.792 30.123 7.808 8.832 21.333 9.6 30.123 1.792 55.637-49.408 154.923-108.288 311.808-108.288 132.224 0 245.205 36.949 335.616 109.781 9.173 7.381 22.571 5.931 29.995-3.243 7.424-9.131 5.931-22.571-3.243-29.995z" />
<glyph unicode="&#xe954;" glyph-name="bank" d="M149.803 704c-11.776 0-21.333-9.557-21.333-21.333v-384c0-11.776 9.557-21.333 21.333-21.333h128c11.776 0 21.333 9.557 21.333 21.333v384c0 11.776-9.557 21.333-21.333 21.333h-128zM747.136 704c-11.776 0-21.333-9.557-21.333-21.333v-384c0-11.776 9.557-21.333 21.333-21.333h128c11.776 0 21.333 9.557 21.333 21.333v384c0 11.776-9.557 21.333-21.333 21.333h-128zM20.907 746.667h981.333c0.256 0 0.555 0 0.853 0 11.733 0 21.333 9.557 21.333 21.333 0 10.539-7.68 19.285-17.707 21.035l-488.149 169.771c-4.523 1.621-9.472 1.621-13.995 0l-490.667-170.667c-9.813-3.413-15.787-13.397-14.037-23.68s10.624-17.792 21.035-17.792zM518.869 305.024c3.84-4.309 9.387-6.357 14.933-6.357s11.093 2.091 14.976 6.357c4.309 3.84 6.357 9.387 6.357 14.976v25.003c32.085 9.771 52.992 36.779 52.992 72.661 0 46.379-26.752 61.312-60.587 80.128l-18.731 10.496c-34.176 19.115-38.528 22.741-38.528 42.837 0 31.317 26.325 34.731 37.632 34.731 13.739 0 36.736-4.523 36.736-34.731 0-11.819 9.557-21.333 21.333-21.333 11.733 0 21.333 9.515 21.333 21.333 0 36.651-20.267 63.531-52.224 73.216v36.992h-0.341c-0.427 4.949-2.304 9.771-6.144 13.227-7.68 8.107-22.187 8.107-29.867 0-3.712-3.456-5.547-8.277-5.973-13.227h-0.299v-34.048c-38.827-6.187-64.896-35.669-64.896-76.075 0-46.336 26.667-61.269 60.416-80.085l18.731-10.539c34.389-19.115 38.699-22.784 38.699-42.88 0-29.824-23.552-34.261-37.589-34.261-14.080 0-37.632 4.437-37.632 34.261 0 11.776-9.557 21.333-21.333 21.333s-21.333-9.557-21.333-21.333c0-40.832 25.557-69.675 64.896-75.605v-22.101c0.043-5.589 2.176-11.093 6.443-14.976zM939.136 149.333v64c0 11.733-9.557 21.333-21.333 21.333h-810.667c-11.776 0-21.333-9.6-21.333-21.333v-64h853.333zM1003.136 106.667h-981.333c-11.776 0-21.333-9.6-21.333-21.333v-128c0-11.776 9.557-21.333 21.333-21.333h981.333c11.776 0 21.333 9.557 21.333 21.333v128c0 11.733-9.557 21.333-21.333 21.333z" />
<glyph unicode="&#xe955;" glyph-name="bar-chart" d="M1024 21.333h-938.667v938.667h-42.667v-938.667h-42.667v-42.667h42.667v-42.667h42.667v42.667h938.667zM405.333 490.667c-11.776 0-21.333-9.557-21.333-21.333v-384c0-11.733 9.557-21.333 21.333-21.333h85.333c11.776 0 21.333 9.6 21.333 21.333v384c0 11.776-9.557 21.333-21.333 21.333h-85.333zM192 320c-11.776 0-21.333-9.6-21.333-21.333v-213.333c0-11.733 9.557-21.333 21.333-21.333h85.333c11.776 0 21.333 9.6 21.333 21.333v213.333c0 11.733-9.557 21.333-21.333 21.333h-85.333zM618.667 320c-11.733 0-21.333-9.6-21.333-21.333v-213.333c0-11.733 9.6-21.333 21.333-21.333h85.333c11.733 0 21.333 9.6 21.333 21.333v213.333c0 11.733-9.6 21.333-21.333 21.333h-85.333zM832 533.333c-11.733 0-21.333-9.557-21.333-21.333v-426.667c0-11.733 9.6-21.333 21.333-21.333h85.333c11.733 0 21.333 9.6 21.333 21.333v426.667c0 11.776-9.6 21.333-21.333 21.333h-85.333zM169.813 364.459c9.728 0 19.541 3.328 27.52 10.027l268.629 227.115 141.227-141.483c8.021-8.021 18.816-12.544 30.165-12.544 10.667 0 22.272 4.523 30.336 12.629l259.584 261.803c16.597 16.725 16.469 43.733-0.299 60.331-16.725 16.555-43.691 16.469-60.331-0.256l-229.376-231.339-138.624 138.965c-15.701 15.744-40.832 16.768-57.771 2.475l-298.624-252.459c-18.005-15.189-20.309-42.112-5.035-60.16 8.448-9.984 20.48-15.104 32.597-15.104z" />
<glyph unicode="&#xe956;" glyph-name="bar-chart-2" d="M128 192h-85.333c-11.776 0-21.333-9.6-21.333-21.333v-213.333c0-11.733 9.557-21.333 21.333-21.333h85.333c11.776 0 21.333 9.6 21.333 21.333v213.333c0 11.733-9.557 21.333-21.333 21.333zM554.667 576h-85.333c-11.776 0-21.333-9.557-21.333-21.333v-597.333c0-11.733 9.557-21.333 21.333-21.333h85.333c11.733 0 21.333 9.6 21.333 21.333v597.333c0 11.776-9.6 21.333-21.333 21.333zM768 960h-85.333c-11.733 0-21.333-9.557-21.333-21.333v-981.333c0-11.733 9.6-21.333 21.333-21.333h85.333c11.733 0 21.333 9.6 21.333 21.333v981.333c0 11.776-9.6 21.333-21.333 21.333zM981.333 576h-85.333c-11.733 0-21.333-9.557-21.333-21.333v-597.333c0-11.733 9.6-21.333 21.333-21.333h85.333c11.733 0 21.333 9.6 21.333 21.333v597.333c0 11.776-9.6 21.333-21.333 21.333zM341.333 661.333h-85.333c-11.776 0-21.333-9.557-21.333-21.333v-682.667c0-11.733 9.557-21.333 21.333-21.333h85.333c11.776 0 21.333 9.6 21.333 21.333v682.667c0 11.776-9.557 21.333-21.333 21.333z" />
<glyph unicode="&#xe957;" glyph-name="bar-chart-3" d="M21.333-21.333h981.333v-42.667h-981.333v42.667zM42.667 21.333h85.333c11.776 0 21.333 9.6 21.333 21.333v213.333c0 11.733-9.557 21.333-21.333 21.333h-85.333c-11.776 0-21.333-9.6-21.333-21.333v-213.333c0-11.733 9.557-21.333 21.333-21.333zM469.333 21.333h85.333c11.733 0 21.333 9.6 21.333 21.333v554.667c0 11.776-9.6 21.333-21.333 21.333h-85.333c-11.776 0-21.333-9.557-21.333-21.333v-554.667c0-11.733 9.557-21.333 21.333-21.333zM682.667 21.333h85.333c11.733 0 21.333 9.6 21.333 21.333v896c0 11.776-9.6 21.333-21.333 21.333h-85.333c-11.733 0-21.333-9.557-21.333-21.333v-896c0-11.733 9.6-21.333 21.333-21.333zM981.333 832h-85.333c-11.733 0-21.333-9.557-21.333-21.333v-768c0-11.733 9.6-21.333 21.333-21.333h85.333c11.733 0 21.333 9.6 21.333 21.333v768c0 11.776-9.6 21.333-21.333 21.333zM256 21.333h85.333c11.776 0 21.333 9.6 21.333 21.333v640c0 11.776-9.557 21.333-21.333 21.333h-85.333c-11.776 0-21.333-9.557-21.333-21.333v-640c0-11.733 9.557-21.333 21.333-21.333z" />
<glyph unicode="&#xe958;" glyph-name="bar-chart-4" d="M0.469-21.333h1024v-42.667h-1024v42.667zM-0.427 192h42.667v-42.667h-42.667v42.667zM-0.427 64h42.667v-42.667h-42.667v42.667zM-0.427 320h42.667v-42.667h-42.667v42.667zM-0.427 448h42.667v-42.667h-42.667v42.667zM-0.427 576h42.667v-42.667h-42.667v42.667zM-0.427 704h42.667v-42.667h-42.667v42.667zM-0.427 832h42.667v-42.667h-42.667v42.667zM-0.427 960h42.667v-42.667h-42.667v42.667zM149.803 21.333h85.333c11.776 0 21.333 9.6 21.333 21.333v213.333c0 11.733-9.557 21.333-21.333 21.333h-85.333c-11.776 0-21.333-9.6-21.333-21.333v-213.333c0-11.733 9.557-21.333 21.333-21.333zM363.136 21.333h85.333c11.776 0 21.333 9.6 21.333 21.333v597.333c0 11.776-9.557 21.333-21.333 21.333h-85.333c-11.776 0-21.333-9.557-21.333-21.333v-597.333c0-11.733 9.557-21.333 21.333-21.333zM576.469 21.333h85.333c11.776 0 21.333 9.6 21.333 21.333v341.333c0 11.733-9.557 21.333-21.333 21.333h-85.333c-11.776 0-21.333-9.6-21.333-21.333v-341.333c0-11.733 9.515-21.333 21.333-21.333zM789.803 21.333h85.333c11.776 0 21.333 9.6 21.333 21.333v128c0 11.733-9.557 21.333-21.333 21.333h-85.333c-11.776 0-21.333-9.6-21.333-21.333v-128c0-11.733 9.515-21.333 21.333-21.333z" />
<glyph unicode="&#xe959;" glyph-name="bar-chart-5" d="M1024 21.333h-938.667v938.667h-42.667v-938.667h-42.667v-42.667h42.667v-42.667h42.667v42.667h938.667zM832 64h85.333c11.733 0 21.333 9.6 21.333 21.333v170.667c0 11.733-9.6 21.333-21.333 21.333h-85.333c-11.733 0-21.333-9.6-21.333-21.333v-170.667c0-11.733 9.6-21.333 21.333-21.333zM618.667 64h85.333c11.733 0 21.333 9.6 21.333 21.333v341.333c0 11.776-9.6 21.333-21.333 21.333h-85.333c-11.733 0-21.333-9.557-21.333-21.333v-341.333c0-11.733 9.6-21.333 21.333-21.333zM405.333 64h85.333c11.776 0 21.333 9.6 21.333 21.333v213.333c0 11.733-9.557 21.333-21.333 21.333h-85.333c-11.776 0-21.333-9.6-21.333-21.333v-213.333c0-11.733 9.557-21.333 21.333-21.333zM192 64h85.333c11.776 0 21.333 9.6 21.333 21.333v640c0 11.776-9.557 21.333-21.333 21.333h-85.333c-11.776 0-21.333-9.557-21.333-21.333v-640c0-11.733 9.557-21.333 21.333-21.333z" />
<glyph unicode="&#xe95a;" glyph-name="bat" d="M988.587 859.904c-0.085 0.256-0.341 0.512-0.469 0.811-0.555 1.493-1.365 2.645-2.219 3.925-0.683 1.067-1.237 2.261-2.133 3.157-0.896 0.939-2.005 1.664-3.029 2.475-1.152 0.811-2.176 1.707-3.499 2.304-1.067 0.555-2.347 0.725-3.499 1.024-1.493 0.427-2.944 0.853-4.523 0.896-0.299 0.043-0.64 0.171-0.896 0.171-1.152 0-2.176-0.469-3.328-0.683-1.067-0.171-2.176 0-3.243-0.384-0.341-0.085-0.555-0.299-0.853-0.427-1.451-0.555-2.688-1.408-3.925-2.261-1.067-0.64-2.219-1.237-3.157-2.091-0.981-0.939-1.707-2.091-2.517-3.2-0.853-1.109-1.664-2.091-2.304-3.371-0.555-1.109-0.725-2.389-1.024-3.584-0.341-1.493-0.853-2.944-0.896-4.437 0-0.341-0.171-0.64-0.171-0.896 0.043-129.408-195.072-234.667-434.901-234.667s-434.901 105.259-434.901 234.667c0 0.299-0.171 0.555-0.171 0.896-0.043 1.536-0.512 2.901-0.896 4.437-0.299 1.195-0.512 2.517-1.024 3.627-0.597 1.237-1.451 2.219-2.261 3.328s-1.536 2.304-2.517 3.243c-0.896 0.853-2.048 1.451-3.115 2.091-1.28 0.853-2.517 1.707-3.968 2.261-0.299 0.085-0.555 0.299-0.853 0.427-1.067 0.341-2.176 0.171-3.328 0.341-1.109 0.171-2.091 0.683-3.285 0.683-0.299 0-0.597-0.128-0.896-0.128-1.579-0.043-2.944-0.555-4.437-0.896-1.237-0.299-2.517-0.512-3.627-1.024-1.237-0.597-2.261-1.493-3.328-2.304-1.109-0.811-2.304-1.493-3.243-2.517-0.853-0.896-1.408-2.005-2.091-3.115-0.853-1.28-1.707-2.517-2.219-3.968-0.128-0.256-0.341-0.512-0.469-0.811-86.101-265.685 1.024-400.128 85.333-530.176 3.541-5.461 9.344-9.003 15.829-9.685 6.485-0.64 12.843 1.749 17.408 6.315 38.571 39.68 90.624 13.184 105.643 4.181 48.171-29.099 86.357-91.008 66.176-153.344-3.072-9.515 0.768-19.755 9.259-24.875s19.413-3.712 26.325 3.371c14.293 14.677 45.44 23.253 72.789 12.117 36.437-14.805 56.533-59.307 56.533-125.227 0-11.819 9.557-21.333 21.333-21.333s21.333 9.515 21.333 21.333c0 65.92 20.139 110.421 56.491 125.227 27.435 11.136 58.581 2.56 72.832-12.117 6.912-7.125 17.835-8.491 26.325-3.371s12.331 15.36 9.259 24.875c-20.224 62.293 18.005 124.288 66.176 153.344 15.061 9.003 67.029 35.584 105.685-4.181 4.48-4.565 10.88-6.955 17.408-6.315 6.4 0.683 12.288 4.224 15.829 9.685 84.224 130.048 171.349 264.576 85.248 530.176zM405.333 669.184c33.536-4.949 69.12-7.851 106.709-7.851s73.173 2.901 106.752 7.808c-9.088 31.019-17.749 71.68-14.165 105.984 0.981 9.557-4.48 18.603-13.397 22.059-8.96 3.499-19.115 0.597-24.875-7.125-24.533-32.768-42.112-60.8-54.315-86.485-12.203 25.685-29.824 53.717-54.315 86.485-5.76 7.68-15.915 10.581-24.875 7.125-8.875-3.413-14.379-12.459-13.397-22.059 3.584-34.304-5.12-74.923-14.123-105.941z" />
<glyph unicode="&#xe95b;" glyph-name="bat-2" d="M1017.6 615.765c-37.632 34.219-103.509 53.845-180.736 53.845-90.752 0-177.024-25.813-240-70.443v109.269c0 11.776-9.6 21.333-21.333 21.333-11.776 0-21.333-9.557-21.333-21.333v-48.299c-6.528 3.499-13.653 5.632-21.333 5.632h-42.667c-7.68 0-14.805-2.133-21.333-5.632v48.299c0 11.776-9.557 21.333-21.333 21.333s-21.333-9.557-21.333-21.333v-108.715c-62.976 44.245-148.907 69.803-239.147 69.803-77.141 0-142.976-19.627-180.608-53.803-6.528-5.931-8.747-15.275-5.547-23.467 3.157-8.235 11.093-13.653 19.883-13.653 78.677 0 150.656-69.931 152.192-125.013 0.299-10.837 8.704-19.712 19.541-20.651 67.499-5.675 118.357-49.024 118.357-100.907 0-5.803-0.811-11.947-2.347-18.389-1.707-6.912 0.213-14.208 5.035-19.456s11.989-7.723 18.944-6.656c8.405 1.28 17.067 2.091 25.984 2.091 72.875 0 132.139-45.781 132.139-102.101 0-11.776 9.557-21.333 21.333-21.333s21.333 9.557 21.333 21.333c0 56.277 59.307 102.101 132.181 102.101 8.917 0 17.536-0.811 25.941-2.091 6.997-1.024 14.165 1.408 18.944 6.656s6.699 12.544 5.035 19.456c-1.536 6.4-2.347 12.587-2.347 18.389 0 51.883 50.816 95.232 118.315 100.907 10.795 0.896 19.243 9.771 19.541 20.651 1.536 55.125 73.557 125.013 152.192 125.013 8.832 0 16.725 5.419 19.84 13.653 3.413 8.192 1.195 17.536-5.333 23.509z" />
<glyph unicode="&#xe95c;" glyph-name="bathrobe" d="M768 188.885h-256v42.667h256v-42.667zM256 231.552h213.333v-42.667h-213.333v42.667zM347.947 910.805l140.971-182.613-17.749-26.752c-3.413-4.352-1.877-9.771-1.877-15.317v-23.211l-171.52 216.235 50.176 31.659zM690.816 903.936l32-19.2-210.816-271.403v64.085l178.816 226.517zM517.163 963.115c67.669 0 116.736-12.203 136.235-22.059 0-1.451 0-2.859 0.256-4.309l-133.12-168.533-134.656 174.379c17.536 9.088 62.208 20.523 131.285 20.523zM215.296 588.587l-116.992-655.701h-98.304l118.528 834.688 136.32 82.389 214.443-267.776v-307.925h-213.333v317.483c0 12.8-5.589 19.712-18.347 20.864-12.544 1.195-20.053-11.435-22.315-24.021zM256 146.219h162.773l-118.869-213.333h-43.904v213.333zM357.632-67.115l111.701 189.824v-189.824h-111.701zM512 122.709l104.832-189.824h-104.832v189.824zM768-67.115h-93.397l-118.912 213.333h212.309v-213.333zM925.355-67.115l-116.608 655.701c-2.261 12.544-9.301 24.96-22.315 24.021-12.757-1.109-18.389-8.064-18.389-20.864v-317.483h-256v258.475l253.611 326.443 140.843-92.032 117.504-834.261h-98.645z" />
<glyph unicode="&#xe95d;" glyph-name="battery-0" d="M981.333 554.667h-21.333v-213.333h21.333c11.776 0 21.333 9.6 21.333 21.333v170.667c0 11.776-9.557 21.333-21.333 21.333zM917.333 341.333v252.032c0 49.237-40.021 89.344-89.344 89.344h-717.355c-49.237-0.043-89.301-40.064-89.301-89.344v-290.688c0-49.237 40.064-89.344 89.344-89.344h717.355c49.237 0 89.344 40.021 89.344 89.344v38.656z" />
</font>
</defs>
</svg>
